  0
SECTION
  2
HEADER
  9
$ACADVER
  1
AC1018
  9
$ACADMAINTVER
 70
     0
  9
$DWGCODEPAGE
  3
ANSI_1252
  9
$INSBASE
 10
0.0
 20
0.0
 30
0.0
  9
$EXTMIN
 10
-143.5000000088685
 20
-108.6862586352137
 30
0.0
  9
$EXTMAX
 10
153.4999999911296
 20
101.3137413647865
 30
0.0
  9
$LIMMIN
 10
0.0
 20
0.0
  9
$LIMMAX
 10
12.0
 20
9.0
  9
$ORTHOMODE
 70
     0
  9
$REGENMODE
 70
     1
  9
$FILLMODE
 70
     1
  9
$QTEXTMODE
 70
     0
  9
$MIRRTEXT
 70
     1
  9
$LTSCALE
 40
1.0
  9
$ATTMODE
 70
     1
  9
$TEXTSIZE
 40
0.2
  9
$TRACEWID
 40
0.05
  9
$TEXTSTYLE
  7
Standard
  9
$CLAYER
  8
0
  9
$CELTYPE
  6
ByLayer
  9
$CECOLOR
 62
   256
  9
$CELTSCALE
 40
1.0
  9
$DISPSILH
 70
     0
  9
$DIMSCALE
 40
1.0
  9
$DIMASZ
 40
0.18
  9
$DIMEXO
 40
0.0625
  9
$DIMDLI
 40
0.38
  9
$DIMRND
 40
0.0
  9
$DIMDLE
 40
0.0
  9
$DIMEXE
 40
0.18
  9
$DIMTP
 40
0.0
  9
$DIMTM
 40
0.0
  9
$DIMTXT
 40
0.18
  9
$DIMCEN
 40
0.09
  9
$DIMTSZ
 40
0.0
  9
$DIMTOL
 70
     0
  9
$DIMLIM
 70
     0
  9
$DIMTIH
 70
     1
  9
$DIMTOH
 70
     1
  9
$DIMSE1
 70
     0
  9
$DIMSE2
 70
     0
  9
$DIMTAD
 70
     0
  9
$DIMZIN
 70
     0
  9
$DIMBLK
  1

  9
$DIMASO
 70
     1
  9
$DIMSHO
 70
     1
  9
$DIMPOST
  1

  9
$DIMAPOST
  1

  9
$DIMALT
 70
     0
  9
$DIMALTD
 70
     2
  9
$DIMALTF
 40
25.4
  9
$DIMLFAC
 40
1.0
  9
$DIMTOFL
 70
     0
  9
$DIMTVP
 40
0.0
  9
$DIMTIX
 70
     0
  9
$DIMSOXD
 70
     0
  9
$DIMSAH
 70
     0
  9
$DIMBLK1
  1

  9
$DIMBLK2
  1

  9
$DIMSTYLE
  2
Standard
  9
$DIMCLRD
 70
     0
  9
$DIMCLRE
 70
     0
  9
$DIMCLRT
 70
     0
  9
$DIMTFAC
 40
1.0
  9
$DIMGAP
 40
0.09
  9
$DIMJUST
 70
     0
  9
$DIMSD1
 70
     0
  9
$DIMSD2
 70
     0
  9
$DIMTOLJ
 70
     1
  9
$DIMTZIN
 70
     0
  9
$DIMALTZ
 70
     0
  9
$DIMALTTZ
 70
     0
  9
$DIMUPT
 70
     0
  9
$DIMDEC
 70
     4
  9
$DIMTDEC
 70
     4
  9
$DIMALTU
 70
     2
  9
$DIMALTTD
 70
     2
  9
$DIMTXSTY
  7
Standard
  9
$DIMAUNIT
 70
     0
  9
$DIMADEC
 70
     0
  9
$DIMALTRND
 40
0.0
  9
$DIMAZIN
 70
     0
  9
$DIMDSEP
 70
    46
  9
$DIMATFIT
 70
     3
  9
$DIMFRAC
 70
     0
  9
$DIMLDRBLK
  1

  9
$DIMLUNIT
 70
     2
  9
$DIMLWD
 70
    -2
  9
$DIMLWE
 70
    -2
  9
$DIMTMOVE
 70
     0
  9
$LUNITS
 70
     2
  9
$LUPREC
 70
     4
  9
$SKETCHINC
 40
0.1
  9
$FILLETRAD
 40
0.5
  9
$AUNITS
 70
     0
  9
$AUPREC
 70
     0
  9
$MENU
  1
.
  9
$ELEVATION
 40
0.0
  9
$PELEVATION
 40
0.0
  9
$THICKNESS
 40
0.0
  9
$LIMCHECK
 70
     0
  9
$CHAMFERA
 40
0.5
  9
$CHAMFERB
 40
0.5
  9
$CHAMFERC
 40
1.0
  9
$CHAMFERD
 40
0.0
  9
$SKPOLY
 70
     0
  9
$TDCREATE
 40
2458198.306258379
  9
$TDUCREATE
 40
2458198.264591713
  9
$TDUPDATE
 40
2458198.306258912
  9
$TDUUPDATE
 40
2458198.264592245
  9
$TDINDWG
 40
0.0000000116
  9
$TDUSRTIMER
 40
0.0000000116
  9
$USRTIMER
 70
     1
  9
$ANGBASE
 50
0.0
  9
$ANGDIR
 70
     0
  9
$PDMODE
 70
     0
  9
$PDSIZE
 40
0.0
  9
$PLINEWID
 40
0.0
  9
$SPLFRAME
 70
     0
  9
$SPLINETYPE
 70
     6
  9
$SPLINESEGS
 70
     8
  9
$HANDSEED
  5
270
  9
$SURFTAB1
 70
     6
  9
$SURFTAB2
 70
     6
  9
$SURFTYPE
 70
     6
  9
$SURFU
 70
     6
  9
$SURFV
 70
     6
  9
$UCSBASE
  2

  9
$UCSNAME
  2

  9
$UCSORG
 10
0.0
 20
0.0
 30
0.0
  9
$UCSXDIR
 10
1.0
 20
0.0
 30
0.0
  9
$UCSYDIR
 10
0.0
 20
1.0
 30
0.0
  9
$UCSORTHOREF
  2

  9
$UCSORTHOVIEW
 70
     0
  9
$UCSORGTOP
 10
0.0
 20
0.0
 30
0.0
  9
$UCSORGBOTTOM
 10
0.0
 20
0.0
 30
0.0
  9
$UCSORGLEFT
 10
0.0
 20
0.0
 30
0.0
  9
$UCSORGRIGHT
 10
0.0
 20
0.0
 30
0.0
  9
$UCSORGFRONT
 10
0.0
 20
0.0
 30
0.0
  9
$UCSORGBACK
 10
0.0
 20
0.0
 30
0.0
  9
$PUCSBASE
  2

  9
$PUCSNAME
  2

  9
$PUCSORG
 10
0.0
 20
0.0
 30
0.0
  9
$PUCSXDIR
 10
1.0
 20
0.0
 30
0.0
  9
$PUCSYDIR
 10
0.0
 20
1.0
 30
0.0
  9
$PUCSORTHOREF
  2

  9
$PUCSORTHOVIEW
 70
     0
  9
$PUCSORGTOP
 10
0.0
 20
0.0
 30
0.0
  9
$PUCSORGBOTTOM
 10
0.0
 20
0.0
 30
0.0
  9
$PUCSORGLEFT
 10
0.0
 20
0.0
 30
0.0
  9
$PUCSORGRIGHT
 10
0.0
 20
0.0
 30
0.0
  9
$PUCSORGFRONT
 10
0.0
 20
0.0
 30
0.0
  9
$PUCSORGBACK
 10
0.0
 20
0.0
 30
0.0
  9
$USERI1
 70
     0
  9
$USERI2
 70
     0
  9
$USERI3
 70
     0
  9
$USERI4
 70
     0
  9
$USERI5
 70
     0
  9
$USERR1
 40
18.1
  9
$USERR2
 40
0.0
  9
$USERR3
 40
0.0
  9
$USERR4
 40
0.0
  9
$USERR5
 40
0.0
  9
$WORLDVIEW
 70
     1
  9
$SHADEDGE
 70
     3
  9
$SHADEDIF
 70
    70
  9
$TILEMODE
 70
     1
  9
$MAXACTVP
 70
    64
  9
$PINSBASE
 10
0.0
 20
0.0
 30
0.0
  9
$PLIMCHECK
 70
     0
  9
$PEXTMIN
 10
1.00000000000000E+20
 20
1.00000000000000E+20
 30
1.00000000000000E+20
  9
$PEXTMAX
 10
-1.00000000000000E+20
 20
-1.00000000000000E+20
 30
-1.00000000000000E+20
  9
$PLIMMIN
 10
0.0
 20
0.0
  9
$PLIMMAX
 10
12.0
 20
9.0
  9
$UNITMODE
 70
     0
  9
$VISRETAIN
 70
     1
  9
$PLINEGEN
 70
     0
  9
$PSLTSCALE
 70
     1
  9
$TREEDEPTH
 70
  3020
  9
$CMLSTYLE
  2
Standard
  9
$CMLJUST
 70
     0
  9
$CMLSCALE
 40
1.0
  9
$PROXYGRAPHICS
 70
     1
  9
$MEASUREMENT
 70
     1
  9
$CELWEIGHT
370
    -1
  9
$ENDCAPS
280
     0
  9
$JOINSTYLE
280
     0
  9
$LWDISPLAY
290
     0
  9
$INSUNITS
 70
     4
  9
$HYPERLINKBASE
  1

  9
$STYLESHEET
  1

  9
$XEDIT
290
     1
  9
$CEPSNTYPE
380
     0
  9
$PSTYLEMODE
290
     1
  9
$FINGERPRINTGUID
  2
{72863A4D-1148-45F9-BF59-372101BD651E}
  9
$VERSIONGUID
  2
{FAEB1C32-E019-11D5-929B-00C0DF256EC4}
  9
$EXTNAMES
290
     1
  9
$PSVPSCALE
 40
0.0
  9
$OLESTARTUP
290
     0
  9
$SORTENTS
280
   127
  9
$INDEXCTL
280
     0
  9
$HIDETEXT
280
     1
  9
$XCLIPFRAME
290
     0
  9
$HALOGAP
280
     0
  9
$OBSCOLOR
 70
   257
  9
$OBSLTYPE
280
     0
  9
$INTERSECTIONDISPLAY
280
     0
  9
$INTERSECTIONCOLOR
 70
   257
  9
$DIMASSOC
280
     2
  9
$PROJECTNAME
  1

  0
ENDSEC
  0
SECTION
  2
CLASSES
  0
CLASS
  1
ACDBDICTIONARYWDFLT
  2
AcDbDictionaryWithDefault
  3
ObjectDBX Classes
 90
        0
 91
        4
280
     0
281
     0
  0
CLASS
  1
VISUALSTYLE
  2
AcDbVisualStyle
  3
ObjectDBX Classes
 90
     4095
 91
        4
280
     0
281
     0
  0
CLASS
  1
MATERIAL
  2
AcDbMaterial
  3
ObjectDBX Classes
 90
     1153
 91
        4
280
     0
281
     0
  0
ENDSEC
  0
SECTION
  2
TABLES
  0
TABLE
  2
VPORT
  5
8
330
0
100
AcDbSymbolTable
 70
     1
  0
VPORT
  5
29
330
8
100
AcDbSymbolTableRecord
100
AcDbViewportTableRecord
  2
*Active
 70
     0
 10
0.0
 20
0.0
 11
1.0
 21
1.0
 12
4.99999999113055
 22
-3.6862586352136
 13
0.0
 23
0.0
 14
0.5
 24
0.5
 15
0.5
 25
0.5
 16
0.0
 26
0.0
 36
1.0
 17
0.0
 27
0.0
 37
0.0
 40
231.0000000000002
 41
1.60267857142857
 42
50.0
 43
0.0
 44
0.0
 50
0.0
 51
0.0
 71
     0
 72
   100
 73
     1
 74
     3
 75
     0
 76
     0
 77
     0
 78
     0
281
     0
 65
     1
110
0.0
120
0.0
130
0.0
111
1.0
121
0.0
131
0.0
112
0.0
122
1.0
132
0.0
 79
     0
146
0.0
  0
ENDTAB
  0
TABLE
  2
LTYPE
  5
5
330
0
100
AcDbSymbolTable
 70
     8
  0
LTYPE
  5
14
330
5
100
AcDbSymbolTableRecord
100
AcDbLinetypeTableRecord
  2
ByBlock
 70
     0
  3

 72
    65
 73
     0
 40
0.0
  0
LTYPE
  5
15
330
5
100
AcDbSymbolTableRecord
100
AcDbLinetypeTableRecord
  2
ByLayer
 70
     0
  3

 72
    65
 73
     0
 40
0.0
  0
LTYPE
  5
16
330
5
100
AcDbSymbolTableRecord
100
AcDbLinetypeTableRecord
  2
Continuous
 70
     0
  3
Solid line
 72
    65
 73
     0
 40
0.0
  0
LTYPE
  5
3F
330
5
100
AcDbSymbolTableRecord
100
AcDbLinetypeTableRecord
  2
DASHED
 70
     0
  3
Dashed
 72
    65
 73
     2
 40
15.0
 49
7.0
 74
     0
 49
-8.0
 74
     0
  0
LTYPE
  5
40
330
5
100
AcDbSymbolTableRecord
100
AcDbLinetypeTableRecord
  2
DOTTED
 70
     0
  3
Dotted
 72
    65
 73
     2
 40
1.0
 49
0.0
 74
     0
 49
-1.0
 74
     0
  0
LTYPE
  5
41
330
5
100
AcDbSymbolTableRecord
100
AcDbLinetypeTableRecord
  2
DOT_CENTER
 70
     0
  3
Dot_Center
 72
    65
 73
     4
 40
14.0
 49
12.0
 74
     0
 49
-1.0
 74
     0
 49
0.0
 74
     0
 49
-1.0
 74
     0
  0
LTYPE
  5
42
330
5
100
AcDbSymbolTableRecord
100
AcDbLinetypeTableRecord
  2
LONG_DASHED
 70
     0
  3
Long_Dashed
 72
    65
 73
     2
 40
15.0
 49
10.0
 74
     0
 49
-5.0
 74
     0
  0
LTYPE
  5
43
330
5
100
AcDbSymbolTableRecord
100
AcDbLinetypeTableRecord
  2
DASH_CENTER
 70
     0
  3
Dash_Center
 72
    65
 73
     4
 40
14.0
 49
11.0
 74
     0
 49
-1.0
 74
     0
 49
1.0
 74
     0
 49
-1.0
 74
     0
  0
LTYPE
  5
44
330
5
100
AcDbSymbolTableRecord
100
AcDbLinetypeTableRecord
  2
PHANTOM
 70
     0
  3
Phantom
 72
    65
 73
     6
 40
13.0
 49
10.0
 74
     0
 49
-1.0
 74
     0
 49
0.0
 74
     0
 49
-1.0
 74
     0
 49
0.0
 74
     0
 49
-1.0
 74
     0
  0
LTYPE
  5
45
330
5
100
AcDbSymbolTableRecord
100
AcDbLinetypeTableRecord
  2
CENTER_DASH_DASH
 70
     0
  3
Center_Dash_Dash
 72
    65
 73
     6
 40
14.0
 49
9.0
 74
     0
 49
-1.0
 74
     0
 49
1.0
 74
     0
 49
-1.0
 74
     0
 49
1.0
 74
     0
 49
-1.0
 74
     0
  0
ENDTAB
  0
TABLE
  2
LAYER
  5
2
330
0
100
AcDbSymbolTable
 70
     2
  0
LAYER
  5
10
330
2
100
AcDbSymbolTableRecord
100
AcDbLayerTableRecord
  2
0
 70
     0
 62
     7
  6
Continuous
370
    -3
390
F
  0
LAYER
  5
46
330
2
100
AcDbSymbolTableRecord
100
AcDbLayerTableRecord
  2
1
 70
     0
 62
     7
  6
Continuous
370
    -3
390
F
  0
ENDTAB
  0
TABLE
  2
STYLE
  5
3
330
0
100
AcDbSymbolTable
 70
     5
  0
STYLE
  5
11
330
3
100
AcDbSymbolTableRecord
100
AcDbTextStyleTableRecord
  2
Standard
 70
     0
 40
0.0
 41
1.0
 50
0.0
 71
     0
 42
0.2
  3
txt
  4

  0
STYLE
  5
A0
330
3
100
AcDbSymbolTableRecord
100
AcDbTextStyleTableRecord
  2
CONVERTER_11
 70
     0
 40
0.0
 41
0.9
 50
0.0
 71
     0
 42
0.2
  3
txt.shx
  4

  0
STYLE
  5
206
330
3
100
AcDbSymbolTableRecord
100
AcDbTextStyleTableRecord
  2
CONVERTER_12
 70
     0
 40
0.0
 41
0.81
 50
0.0
 71
     0
 42
0.2
  3
txt.shx
  4

  0
STYLE
  5
20C
330
3
100
AcDbSymbolTableRecord
100
AcDbTextStyleTableRecord
  2
CONVERTER_13
 70
     0
 40
0.0
 41
0.855
 50
0.0
 71
     0
 42
0.2
  3
txt.shx
  4

  0
STYLE
  5
20F
330
3
100
AcDbSymbolTableRecord
100
AcDbTextStyleTableRecord
  2
CONVERTER_14
 70
     0
 40
0.0
 41
0.72
 50
0.0
 71
     0
 42
0.2
  3
txt.shx
  4

  0
ENDTAB
  0
TABLE
  2
VIEW
  5
6
330
0
100
AcDbSymbolTable
 70
     0
  0
ENDTAB
  0
TABLE
  2
UCS
  5
7
330
0
100
AcDbSymbolTable
 70
     0
  0
ENDTAB
  0
TABLE
  2
APPID
  5
9
330
0
100
AcDbSymbolTable
 70
     1
  0
APPID
  5
12
330
9
100
AcDbSymbolTableRecord
100
AcDbRegAppTableRecord
  2
ACAD
 70
     0
  0
ENDTAB
  0
TABLE
  2
DIMSTYLE
  5
A
330
0
100
AcDbSymbolTable
 70
     4
100
AcDbDimStyleTable
  0
DIMSTYLE
105
27
330
A
100
AcDbSymbolTableRecord
100
AcDbDimStyleTableRecord
  2
Standard
 70
     0
178
     0
340
11
  0
DIMSTYLE
105
BE
102
{ACAD_REACTORS
330
BF
102
}
330
A
100
AcDbSymbolTableRecord
100
AcDbDimStyleTableRecord
  2
ME10_DIM_10
 70
     0
 41
3.5
 42
0.0
 44
1.5
 73
     0
 74
     0
 77
     1
 78
     8
140
3.5
147
1.5
172
     1
173
     1
174
     1
175
     1
176
     2
177
     2
271
     2
178
     3
271
     2
340
A0
  0
DIMSTYLE
105
102
102
{ACAD_REACTORS
330
103
102
}
330
A
100
AcDbSymbolTableRecord
100
AcDbDimStyleTableRecord
  2
ME10_DIM_11
 70
     0
 41
3.5
 42
0.0
 44
1.5
 73
     0
 74
     0
 77
     1
 78
     8
140
3.5
147
1.5
172
     1
173
     1
174
     1
175
     1
176
     2
177
     2
271
     1
178
     3
271
     1
340
A0
  0
DIMSTYLE
105
10D
102
{ACAD_REACTORS
330
10E
102
}
330
A
100
AcDbSymbolTableRecord
100
AcDbDimStyleTableRecord
  2
ME10_DIM_12
 70
     0
 41
3.5
 42
0.0
 44
1.5
 73
     0
 74
     0
 77
     1
 78
     8
140
3.5
147
1.5
172
     1
173
     1
174
     1
175
     1
176
     2
177
     2
271
     1
178
     3
271
     1
340
A0
  0
ENDTAB
  0
TABLE
  2
BLOCK_RECORD
  5
1
330
0
100
AcDbSymbolTable
 70
    20
  0
BLOCK_RECORD
  5
1F
330
1
100
AcDbSymbolTableRecord
100
AcDbBlockTableRecord
  2
*Model_Space
340
22
  0
BLOCK_RECORD
  5
1B
330
1
100
AcDbSymbolTableRecord
100
AcDbBlockTableRecord
  2
*Paper_Space
340
1E
  0
BLOCK_RECORD
  5
23
330
1
100
AcDbSymbolTableRecord
100
AcDbBlockTableRecord
  2
*Paper_Space0
340
26
  0
BLOCK_RECORD
  5
47
330
1
100
AcDbSymbolTableRecord
100
AcDbBlockTableRecord
  2
D_STIO_25_3__1
340
0
102
{BLKREFS
331
4B
102
}
  0
BLOCK_RECORD
  5
4A
330
1
100
AcDbSymbolTableRecord
100
AcDbBlockTableRecord
  2
AllgSicht1
340
0
102
{BLKREFS
331
7D
102
}
  0
BLOCK_RECORD
  5
4E
330
1
100
AcDbSymbolTableRecord
100
AcDbBlockTableRecord
  2
D_STIO_25_3__2
340
0
102
{BLKREFS
331
52
102
}
  0
BLOCK_RECORD
  5
51
330
1
100
AcDbSymbolTableRecord
100
AcDbBlockTableRecord
  2
Drfsicht1
340
0
102
{BLKREFS
331
7E
102
}
  0
BLOCK_RECORD
  5
55
330
1
100
AcDbSymbolTableRecord
100
AcDbBlockTableRecord
  2
D_STIO_25_3__3
340
0
102
{BLKREFS
331
59
102
}
  0
BLOCK_RECORD
  5
58
330
1
100
AcDbSymbolTableRecord
100
AcDbBlockTableRecord
  2
Rckans1
340
0
102
{BLKREFS
331
7F
102
}
  0
BLOCK_RECORD
  5
5C
330
1
100
AcDbSymbolTableRecord
100
AcDbBlockTableRecord
  2
D_STIO_25_3__4
340
0
102
{BLKREFS
331
60
102
}
  0
BLOCK_RECORD
  5
5F
330
1
100
AcDbSymbolTableRecord
100
AcDbBlockTableRecord
  2
SA_Links1
340
0
102
{BLKREFS
331
80
102
}
  0
BLOCK_RECORD
  5
63
330
1
100
AcDbSymbolTableRecord
100
AcDbBlockTableRecord
  2
D_STIO_25_3__5
340
0
102
{BLKREFS
331
67
102
}
  0
BLOCK_RECORD
  5
66
330
1
100
AcDbSymbolTableRecord
100
AcDbBlockTableRecord
  2
SA_Rechts1
340
0
102
{BLKREFS
331
81
102
}
  0
BLOCK_RECORD
  5
6A
330
1
100
AcDbSymbolTableRecord
100
AcDbBlockTableRecord
  2
D_STIO_25_3__6
340
0
102
{BLKREFS
331
6E
102
}
  0
BLOCK_RECORD
  5
6D
330
1
100
AcDbSymbolTableRecord
100
AcDbBlockTableRecord
  2
Vordans1
340
0
102
{BLKREFS
331
82
102
}
  0
BLOCK_RECORD
  5
71
330
1
100
AcDbSymbolTableRecord
100
AcDbBlockTableRecord
  2
_rahmen
340
0
102
{BLKREFS
331
78
102
}
  0
BLOCK_RECORD
  5
74
330
1
100
AcDbSymbolTableRecord
100
AcDbBlockTableRecord
  2
_punkt
340
0
102
{BLKREFS
331
79
102
}
  0
BLOCK_RECORD
  5
77
330
1
100
AcDbSymbolTableRecord
100
AcDbBlockTableRecord
  2
A4I_CS
340
0
102
{BLKREFS
331
83
102
}
  0
BLOCK_RECORD
  5
7C
330
1
100
AcDbSymbolTableRecord
100
AcDbBlockTableRecord
  2
1
340
0
102
{BLKREFS
331
86
102
}
  0
BLOCK_RECORD
  5
B3
330
1
100
AcDbSymbolTableRecord
100
AcDbBlockTableRecord
  2
*D17
340
0
  0
BLOCK_RECORD
  5
F9
330
1
100
AcDbSymbolTableRecord
100
AcDbBlockTableRecord
  2
*D18
340
0
  0
BLOCK_RECORD
  5
104
330
1
100
AcDbSymbolTableRecord
100
AcDbBlockTableRecord
  2
*D19
340
0
  0
ENDTAB
  0
ENDSEC
  0
SECTION
  2
BLOCKS
  0
BLOCK
  5
20
330
1F
100
AcDbEntity
  8
0
100
AcDbBlockBegin
  2
*Model_Space
 70
     0
 10
0.0
 20
0.0
 30
0.0
  3
*Model_Space
  1

  0
ENDBLK
  5
21
330
1F
100
AcDbEntity
  8
0
100
AcDbBlockEnd
  0
BLOCK
  5
1C
330
1B
100
AcDbEntity
 67
     1
  8
0
100
AcDbBlockBegin
  2
*Paper_Space
 70
     0
 10
0.0
 20
0.0
 30
0.0
  3
*Paper_Space
  1

  0
ENDBLK
  5
1D
330
1B
100
AcDbEntity
 67
     1
  8
0
100
AcDbBlockEnd
  0
BLOCK
  5
24
330
23
100
AcDbEntity
  8
0
100
AcDbBlockBegin
  2
*Paper_Space0
 70
     0
 10
0.0
 20
0.0
 30
0.0
  3
*Paper_Space0
  1

  0
ENDBLK
  5
25
330
23
100
AcDbEntity
  8
0
100
AcDbBlockEnd
  0
BLOCK
  5
48
330
47
100
AcDbEntity
  8
0
100
AcDbBlockBegin
  2
D_STIO_25_3__1
 70
     0
 10
43.46672568336138
 20
-52.22484413367425
 30
0.0
  3
D_STIO_25_3__1
  1

  0
LINE
  5
87
330
47
100
AcDbEntity
  8
0
  6
Continuous
 62
     7
100
AcDbLine
 10
106.426772805493
 20
-52.22484413367425
 30
0.0
 11
43.46672568336979
 21
-34.04984405684833
 31
0.0
  0
LINE
  5
88
330
47
100
AcDbEntity
  8
0
  6
Continuous
 62
     7
100
AcDbLine
 10
106.426772805493
 20
-52.22484413367425
 30
0.0
 11
107.5267728054646
 21
-51.27221618953564
 31
0.0
  0
LINE
  5
89
330
47
100
AcDbEntity
  8
0
  6
Continuous
 62
     7
100
AcDbLine
 10
107.5267728054258
 20
-44.34401295935038
 30
0.0
 11
107.5267728054646
 21
-51.27221618953564
 31
0.0
  0
LINE
  5
8A
330
47
100
AcDbEntity
  8
0
  6
Continuous
 62
     7
100
AcDbLine
 10
106.4267728054527
 20
-45.29664090349036
 30
0.0
 11
106.426772805493
 21
-52.22484413367425
 31
0.0
  0
LINE
  5
8B
330
47
100
AcDbEntity
  8
0
  6
Continuous
 62
     7
100
AcDbLine
 10
108.4572810438831
 20
-19.67109592120278
 30
0.0
 11
76.37197794920178
 21
-10.4088667320821
 31
0.0
  0
LINE
  5
8C
330
47
100
AcDbEntity
  8
0
  6
Continuous
 62
     7
100
AcDbLine
 10
75.2719779492729
 20
-11.36149467618387
 30
0.0
 11
107.3572810439317
 21
-20.62372386532381
 31
0.0
  0
LINE
  5
8D
330
47
100
AcDbEntity
  8
0
  6
Continuous
 62
     7
100
AcDbLine
 10
107.3572810439317
 20
-20.62372386532381
 30
0.0
 11
108.4572810438831
 21
-19.67109592120278
 31
0.0
  0
LINE
  5
8E
330
47
100
AcDbEntity
  8
0
  6
Continuous
 62
     7
100
AcDbLine
 10
43.46672568336979
 20
-34.04984405684833
 30
0.0
 11
43.46672568336138
 21
-29.71971762133161
 31
0.0
  0
LINE
  5
8F
330
47
100
AcDbEntity
  8
0
  6
Continuous
 62
     7
100
AcDbLine
 10
43.4667259506565
 20
-19.32741229883642
 30
0.0
 11
43.46672595063569
 21
-15.88020849039212
 31
0.0
  0
LINE
  5
90
330
47
100
AcDbEntity
  8
0
  6
Continuous
 62
     7
100
AcDbLine
 10
108.323974713722
 20
-27.78116715006928
 30
0.0
 11
108.3239747137543
 21
-34.29158242417427
 31
0.0
  0
LINE
  5
91
330
47
100
AcDbEntity
  8
0
  6
Continuous
 62
     7
100
AcDbLine
 10
107.3572810439317
 20
-20.62372386532381
 30
0.0
 11
108.323974713722
 21
-27.78116715006928
 31
0.0
  0
LINE
  5
92
330
47
100
AcDbEntity
  8
0
  6
Continuous
 62
     7
100
AcDbLine
 10
108.3239747137543
 20
-34.29158242417427
 30
0.0
 11
109.4239747137151
 21
-33.33895448004495
 31
0.0
  0
LINE
  5
93
330
47
100
AcDbEntity
  8
0
  6
Continuous
 62
     7
100
AcDbLine
 10
106.4267728054527
 20
-45.29664090349036
 30
0.0
 11
107.5267728054258
 21
-44.34401295935038
 31
0.0
  0
LINE
  5
94
330
47
100
AcDbEntity
  8
0
  6
Continuous
 62
     7
100
AcDbLine
 10
45.5488818480998
 20
-8.2227021958758
 30
0.0
 11
74.50722130285118
 21
-16.58225473548453
 31
0.0
  0
LINE
  5
95
330
47
100
AcDbEntity
  8
0
  6
Continuous
 62
     7
100
AcDbLine
 10
44.448881848188
 20
-9.17533013996272
 30
0.0
 11
45.5488818480998
 21
-8.2227021958758
 31
0.0
  0
LINE
  5
96
330
47
100
AcDbEntity
  8
0
  6
Continuous
 62
     7
100
AcDbLine
 10
43.46672595063569
 20
-15.88020849039212
 30
0.0
 11
44.448881848188
 21
-9.17533013996272
 31
0.0
  0
LINE
  5
97
330
47
100
AcDbEntity
  8
0
  6
Continuous
 62
     7
100
AcDbLine
 10
75.2719779492729
 20
-11.36149467618387
 30
0.0
 11
76.37197794920178
 21
-10.4088667320821
 31
0.0
  0
LINE
  5
98
330
47
100
AcDbEntity
  8
0
  6
Continuous
 62
     7
100
AcDbLine
 10
44.448881848188
 20
-9.17533013996272
 30
0.0
 11
74.32871046762457
 21
-17.80089368823442
 31
0.0
  0
LINE
  5
99
330
47
100
AcDbEntity
  8
0
  6
Continuous
 62
     7
100
AcDbLine
 10
74.32871046762457
 20
-17.80089368823442
 30
0.0
 11
75.2719779492729
 21
-11.36149467618387
 31
0.0
  0
LINE
  5
9A
330
47
100
AcDbEntity
  8
0
  6
Continuous
 62
     7
100
AcDbLine
 10
109.4239747136786
 20
-26.82853920594364
 30
0.0
 11
109.4239747137151
 21
-33.33895448004495
 31
0.0
  0
LINE
  5
9B
330
47
100
AcDbEntity
  8
0
  6
Continuous
 62
     7
100
AcDbLine
 10
108.4572810438831
 20
-19.67109592120278
 30
0.0
 11
109.4239747136786
 21
-26.82853920594364
 31
0.0
  0
LINE
  5
9C
330
47
100
AcDbEntity
  8
0
  6
Continuous
 62
     7
100
AcDbLine
 10
109.4239747136786
 20
-26.82853920594364
 30
0.0
 11
108.323974713722
 21
-27.78116715006928
 31
0.0
  0
SPLINE
  5
9D
330
47
100
AcDbEntity
  8
0
  6
Continuous
 62
     7
100
AcDbSpline
210
0.0
220
0.0
230
1.0
 70
     8
 71
     3
 72
    13
 73
     9
 74
     7
 42
0.000000001
 43
0.0000000001
 44
0.00000001
 40
0.0
 40
0.0
 40
0.0
 40
0.0
 40
1.944158414738647
 40
3.827602807747584
 40
5.643270313577457
 40
7.388653243260413
 40
9.066515405514451
 40
10.68531635515995
 40
10.68531635515995
 40
10.68531635515995
 40
10.68531635515995
 10
43.4667259506565
 20
-19.32741229883642
 30
0.0
 10
43.68190044898564
 20
-19.939486935506
 30
0.0
 10
44.10552975870446
 20
-21.14452176637231
 30
0.0
 10
44.46252098680787
 20
-22.99807022524008
 30
0.0
 10
44.59343388341428
 20
-24.81323532114244
 30
0.0
 10
44.4709815787303
 20
-26.55966469321557
 30
0.0
 10
44.1253595885259
 20
-28.21538027999367
 30
0.0
 10
43.6836324087251
 20
-29.22429690875976
 30
0.0
 10
43.46672568336138
 20
-29.71971762133161
 30
0.0
 11
43.4667259506565
 21
-19.32741229883642
 31
0.0
 11
44.06542442447576
 21
-21.17709121050753
 31
0.0
 11
44.42920261118299
 21
-23.02507070570915
 31
0.0
 11
44.55122602331961
 21
-24.83663323100329
 31
0.0
 11
44.42920251980648
 21
-26.57774547379764
 31
0.0
 11
44.0654242434394
 21
-28.21569749038247
 31
0.0
 11
43.46672568336138
 21
-29.71971762133161
 31
0.0
  0
SPLINE
  5
9E
330
47
100
AcDbEntity
  8
0
  6
Continuous
 62
     7
100
AcDbSpline
210
0.0
220
0.0
230
1.0
 70
     8
 71
     3
 72
    13
 73
     9
 74
     7
 42
0.000000001
 43
0.0000000001
 44
0.00000001
 40
0.0
 40
0.0
 40
0.0
 40
0.0
 40
2.150208671201046
 40
4.213612766757878
 40
6.186437745540456
 40
8.073717498294222
 40
9.889979104797638
 40
11.65868532742821
 40
11.65868532742821
 40
11.65868532742821
 40
11.65868532742821
 10
107.5267728054258
 20
-44.34401295935038
 30
0.0
 10
107.3538353942351
 20
-43.64723438101181
 30
0.0
 10
107.0149421216008
 20
-42.28180638367372
 30
0.0
 10
106.879075510635
 20
-40.2136270395807
 30
0.0
 10
107.039038335307
 20
-38.23705373267357
 30
0.0
 10
107.5232343104849
 20
-36.39998111790234
 30
0.0
 10
108.2906144461835
 20
-34.72540746387983
 30
0.0
 10
109.0495437418512
 20
-33.79700029696046
 30
0.0
 10
109.4239747137151
 20
-33.33895448004495
 30
0.0
 11
107.5267728054258
 21
-44.34401295935038
 31
0.0
 11
107.0721127471694
 21
-42.24242271441002
 31
0.0
 11
106.9287390250738
 21
-40.18400573997454
 31
0.0
 11
107.1001263146022
 21
-38.21863941289131
 31
0.0
 11
107.5821211476843
 21
-36.39394605405202
 31
0.0
 11
108.3630449562827
 21
-34.75413989536045
 31
0.0
 11
109.4239747137151
 21
-33.33895448004495
 31
0.0
  0
SPLINE
  5
9F
330
47
100
AcDbEntity
  8
0
  6
Continuous
 62
     7
100
AcDbSpline
210
0.0
220
0.0
230
1.0
 70
     8
 71
     3
 72
    13
 73
     9
 74
     7
 42
0.000000001
 43
0.0000000001
 44
0.00000001
 40
0.0
 40
0.0
 40
0.0
 40
0.0
 40
2.150208671201058
 40
4.213612766757898
 40
6.186437745540468
 40
8.073717498294233
 40
9.889979104799519
 40
11.65868532744403
 40
11.65868532744403
 40
11.65868532744403
 40
11.65868532744403
 10
106.4267728054527
 20
-45.29664090349036
 30
0.0
 10
106.253835394262
 20
-44.59986232515178
 30
0.0
 10
105.9149421216277
 20
-43.23443432781371
 30
0.0
 10
105.7790755106619
 20
-41.16625498372068
 30
0.0
 10
105.9390383353339
 20
-39.18968167681356
 30
0.0
 10
106.4232343105118
 20
-37.3526090620417
 30
0.0
 10
107.1906144462133
 20
-35.67803540801451
 30
0.0
 10
107.9495437418864
 20
-34.74962824109262
 30
0.0
 10
108.3239747137543
 20
-34.29158242417427
 30
0.0
 11
106.4267728054527
 21
-45.29664090349036
 31
0.0
 11
105.9721127471962
 21
-43.19505065855
 31
0.0
 11
105.8287390251006
 21
-41.13663368411451
 31
0.0
 11
106.000126314629
 21
-39.1712673570313
 31
0.0
 11
106.4821211477112
 21
-37.34657399819201
 31
0.0
 11
107.2630449563111
 21
-35.70676783949911
 31
0.0
 11
108.3239747137543
 21
-34.29158242417427
 31
0.0
  0
ENDBLK
  5
49
330
47
100
AcDbEntity
  8
0
100
AcDbBlockEnd
  0
BLOCK
  5
4C
330
4A
100
AcDbEntity
  8
0
100
AcDbBlockBegin
  2
AllgSicht1
 70
     0
 10
76.4453499999826
 20
-27.0
 30
0.0
  3
AllgSicht1
  1

  0
INSERT
  5
4B
330
4A
100
AcDbEntity
  8
0
100
AcDbBlockReference
  2
D_STIO_25_3__1
 10
43.46672568336138
 20
-52.22484413367425
 30
0.0
  0
MTEXT
  5
A1
330
4A
100
AcDbEntity
  8
1
 62
     6
100
AcDbMText
 10
76.445349999982
 20
-57.77251691324227
 30
0.0
 40
5.0
 41
0.0
 71
     2
 72
     1
  1
 
  7
CONVERTER_11
 73
     1
 44
1.32052821128451
  0
ENDBLK
  5
4D
330
4A
100
AcDbEntity
  8
0
100
AcDbBlockEnd
  0
BLOCK
  5
4F
330
4E
100
AcDbEntity
  8
0
100
AcDbBlockBegin
  2
D_STIO_25_3__2
 70
     0
 10
-79.89069995434099
 20
-28.09999933004698
 30
0.0
  3
D_STIO_25_3__2
  1

  0
LINE
  5
A2
330
4E
100
AcDbEntity
  8
0
  6
Continuous
 62
     7
100
AcDbLine
 10
-43.16515834819387
 20
-28.09999932998459
 30
0.0
 11
-43.16515834819319
 21
-25.89999933012782
 31
0.0
  0
LINE
  5
A3
330
4E
100
AcDbEntity
  8
0
  6
Continuous
 62
     7
100
AcDbLine
 10
-79.89069995434099
 20
-28.09999932993782
 30
0.0
 11
-78.75660401066354
 21
-28.09999932993498
 31
0.0
  0
LINE
  5
A4
330
4E
100
AcDbEntity
  8
0
  6
Continuous
 62
     7
100
AcDbLine
 10
-43.16515834819387
 20
-28.09999932998459
 30
0.0
 11
-6.11624159069738
 21
-28.09999933004079
 31
0.0
  0
LINE
  5
A5
330
4E
100
AcDbEntity
  8
0
  6
Continuous
 62
     7
100
AcDbLine
 10
-6.11624159069738
 20
-28.09999933004079
 30
0.0
 11
-4.99999988974209
 21
-28.09999933004698
 31
0.0
  0
LINE
  5
A6
330
4E
100
AcDbEntity
  8
0
  6
Continuous
 62
     7
100
AcDbLine
 10
-44.25434981709014
 20
-28.09999932998732
 30
0.0
 11
-43.16515834819387
 21
-28.09999932998459
 31
0.0
  0
LINE
  5
A7
330
4E
100
AcDbEntity
  8
0
  6
Continuous
 62
     7
100
AcDbLine
 10
-78.75660401066354
 20
-28.09999932993498
 30
0.0
 11
-44.25434981709014
 21
-28.09999932998732
 31
0.0
  0
LINE
  5
A8
330
4E
100
AcDbEntity
  8
0
  6
Continuous
 62
     7
100
AcDbLine
 10
-44.25434981708946
 20
-25.89999933012311
 30
0.0
 11
-44.25434981709014
 21
-28.09999932998732
 31
0.0
  0
LINE
  5
A9
330
4E
100
AcDbEntity
  8
0
  6
Continuous
 62
     7
100
AcDbLine
 10
-78.75660401066354
 20
-28.09999932993498
 30
0.0
 11
-78.75660401066285
 21
-25.89999933011249
 31
0.0
  0
LINE
  5
AA
330
4E
100
AcDbEntity
  8
0
  6
Continuous
 62
     7
100
AcDbLine
 10
-6.11624159069669
 20
-25.89999933013923
 30
0.0
 11
-4.99999988974139
 21
-25.89999933013508
 31
0.0
  0
LINE
  5
AB
330
4E
100
AcDbEntity
  8
0
  6
Continuous
 62
     7
100
AcDbLine
 10
-44.25434981708946
 20
-25.89999933012311
 30
0.0
 11
-43.16515834819319
 21
-25.89999933012782
 31
0.0
  0
LINE
  5
AC
330
4E
100
AcDbEntity
  8
0
  6
Continuous
 62
     7
100
AcDbLine
 10
-78.75660401066285
 20
-25.89999933011249
 30
0.0
 11
-44.25434981708946
 21
-25.89999933012311
 31
0.0
  0
LINE
  5
AD
330
4E
100
AcDbEntity
  8
0
  6
Continuous
 62
     7
100
AcDbLine
 10
-6.11624159069669
 20
-25.89999933013923
 30
0.0
 11
-43.16515834819319
 21
-25.89999933012782
 31
0.0
  0
LINE
  5
AE
330
4E
100
AcDbEntity
  8
0
  6
Continuous
 62
     7
100
AcDbLine
 10
-79.89069995433991
 20
-25.89999933010758
 30
0.0
 11
-78.75660401066285
 21
-25.89999933011249
 31
0.0
  0
LINE
  5
AF
330
4E
100
AcDbEntity
  8
0
  6
Continuous
 62
     7
100
AcDbLine
 10
-79.89069995433991
 20
-25.89999933010758
 30
0.0
 11
-79.89069995434099
 21
-28.09999932993782
 31
0.0
  0
LINE
  5
B0
330
4E
100
AcDbEntity
  8
0
  6
Continuous
 62
     7
100
AcDbLine
 10
-4.99999988974139
 20
-25.89999933013508
 30
0.0
 11
-4.99999988974209
 21
-28.09999933004698
 31
0.0
  0
LINE
  5
B1
330
4E
100
AcDbEntity
  8
0
  6
Continuous
 62
     7
100
AcDbLine
 10
-6.11624159069738
 20
-28.09999933004079
 30
0.0
 11
-6.11624159069669
 21
-25.89999933013923
 31
0.0
  0
ENDBLK
  5
50
330
4E
100
AcDbEntity
  8
0
100
AcDbBlockEnd
  0
BLOCK
  5
53
330
51
100
AcDbEntity
  8
0
100
AcDbBlockBegin
  2
Drfsicht1
 70
     0
 10
-42.44535014043814
 20
-26.99999961611517
 30
0.0
  3
Drfsicht1
  1

  0
INSERT
  5
52
330
51
100
AcDbEntity
  8
0
100
AcDbBlockReference
  2
D_STIO_25_3__2
 10
-79.89069995434099
 20
-28.09999933004698
 30
0.0
  0
MTEXT
  5
B2
330
51
100
AcDbEntity
  8
1
 62
     6
100
AcDbMText
 10
-42.445350140438
 20
-33.09999952087083
 30
0.0
 40
5.0
 41
0.0
 71
     2
 72
     1
  1
 
  7
CONVERTER_11
 73
     1
 44
1.32052821128451
  0
DIMENSION
  5
BF
330
51
100
AcDbEntity
  8
1
100
AcDbDimension
  2
*D17
 10
-94.5412957585205
 20
-25.89999933010758
 30
0.0
 11
-97.9662957585205
 21
-18.4217454766646
 31
0.0
 70
    33
  1
<>
 71
     5
 42
-1.0
 53
89.99999999997188
  3
ME10_DIM_10
100
AcDbAlignedDimension
 13
-79.89069995434099
 23
-28.09999932993782
 33
0.0
 14
-79.89069995433991
 24
-25.89999933010758
 34
0.0
  0
ENDBLK
  5
54
330
51
100
AcDbEntity
  8
0
100
AcDbBlockEnd
  0
BLOCK
  5
56
330
55
100
AcDbEntity
  8
0
100
AcDbBlockBegin
  2
D_STIO_25_3__3
 70
     0
 10
38.99999988985539
 20
18.59999964243496
 30
0.0
  3
D_STIO_25_3__3
  1

  0
LINE
  5
C0
330
55
100
AcDbEntity
  8
0
  6
Continuous
 62
     7
100
AcDbLine
 10
38.99999988989218
 20
47.4575272517722
 30
0.0
 11
38.99999988985539
 21
39.93994722970423
 31
0.0
  0
LINE
  5
C1
330
55
100
AcDbEntity
  8
0
  6
Continuous
 62
     7
100
AcDbLine
 10
113.8906999544907
 20
39.58048770226036
 30
0.0
 11
112.7566040108137
 21
47.64999964244745
 31
0.0
  0
LINE
  5
C2
330
55
100
AcDbEntity
  8
0
  6
Continuous
 62
     7
100
AcDbLine
 10
112.7566040108137
 20
47.64999964244745
 30
0.0
 11
78.25434981724025
 21
47.649999642601
 31
0.0
  0
LINE
  5
C3
330
55
100
AcDbEntity
  8
0
  6
Continuous
 62
     7
100
AcDbLine
 10
78.25434981724025
 20
47.649999642601
 30
0.0
 11
77.16515834834398
 21
55.39999964253513
 31
0.0
  0
LINE
  5
C4
330
55
100
AcDbEntity
  8
0
  6
Continuous
 62
     7
100
AcDbLine
 10
40.11624159084743
 20
55.39999964281946
 30
0.0
 11
77.16515834834398
 21
55.39999964253513
 31
0.0
  0
LINE
  5
C5
330
55
100
AcDbEntity
  8
0
  6
Continuous
 62
     7
100
AcDbLine
 10
40.11624159084743
 20
55.39999964281946
 30
0.0
 11
38.99999988989218
 21
47.4575272517722
 31
0.0
  0
LINE
  5
C6
330
55
100
AcDbEntity
  8
0
  6
Continuous
 62
     7
100
AcDbLine
 10
113.8906999544729
 20
35.59999960874572
 30
0.0
 11
113.8906999544907
 21
39.58048770226036
 31
0.0
  0
LINE
  5
C7
330
55
100
AcDbEntity
  8
0
  6
Continuous
 62
     7
100
AcDbLine
 10
41.1906999547809
 20
26.59999964265406
 30
0.0
 11
41.19069995474179
 21
18.59999964276818
 31
0.0
  0
LINE
  5
C8
330
55
100
AcDbEntity
  8
0
  6
Continuous
 62
     7
100
AcDbLine
 10
113.8907002631043
 20
18.59999964243496
 30
0.0
 11
41.19069995474179
 21
18.59999964276818
 31
0.0
  0
LINE
  5
C9
330
55
100
AcDbEntity
  8
0
  6
Continuous
 62
     7
100
AcDbLine
 10
113.8907002631043
 20
18.59999964243496
 30
0.0
 11
113.8907002631272
 21
23.59999896875605
 31
0.0
  0
ARC
  5
CA
330
55
100
AcDbEntity
  8
0
  6
Continuous
 62
     7
100
AcDbCircle
 10
26.88161193355016
 20
31.0999996427286
 30
0.0
 40
14.99999999999999
100
AcDbArc
 50
342.5423968759795
 51
36.10946596417803
  0
ARC
  5
CB
330
55
100
AcDbEntity
  8
0
  6
Continuous
 62
     7
100
AcDbCircle
 10
127.6384270540104
 20
29.59999964235879
 30
0.0
 40
15.00000000000004
100
AcDbArc
 50
156.4218216618859
 51
203.5781812855454
  0
ENDBLK
  5
57
330
55
100
AcDbEntity
  8
0
100
AcDbBlockEnd
  0
BLOCK
  5
5A
330
58
100
AcDbEntity
  8
0
100
AcDbBlockBegin
  2
Rckans1
 70
     0
 10
76.44535014044095
 20
37.0
 30
0.0
  3
Rckans1
  1

  0
INSERT
  5
59
330
58
100
AcDbEntity
  8
0
100
AcDbBlockReference
  2
D_STIO_25_3__3
 10
38.99999988985539
 20
18.59999964243496
 30
0.0
  0
MTEXT
  5
CC
330
58
100
AcDbEntity
  8
1
 62
     6
100
AcDbMText
 10
76.44535014044095
 20
13.60000228864635
 30
0.0
 40
5.0
 41
0.0
 71
     2
 72
     1
  1
 
  7
CONVERTER_11
 73
     1
 44
1.32052821128451
  0
ENDBLK
  5
5B
330
58
100
AcDbEntity
  8
0
100
AcDbBlockEnd
  0
BLOCK
  5
5D
330
5C
100
AcDbEntity
  8
0
100
AcDbBlockBegin
  2
D_STIO_25_3__4
 70
     0
 10
15.89999971399055
 20
18.59999964243372
 30
0.0
  3
D_STIO_25_3__4
  1

  0
LINE
  5
CD
330
5C
100
AcDbEntity
  8
0
  6
Continuous
 62
     7
100
AcDbLine
 10
15.89999971400016
 20
35.59999960874571
 30
0.0
 11
15.89999971399338
 21
23.59999896875604
 31
0.0
  0
LINE
  5
CE
330
5C
100
AcDbEntity
  8
0
  6
Continuous
 62
     7
100
AcDbLine
 10
15.89999971401794
 20
47.64999964260099
 30
0.0
 11
15.89999971402266
 21
55.39999964253511
 31
0.0
  0
LINE
  5
CF
330
5C
100
AcDbEntity
  8
0
  6
Continuous
 62
     7
100
AcDbLine
 10
18.09999971387942
 20
55.39999964253389
 30
0.0
 11
15.89999971402266
 21
55.39999964253511
 31
0.0
  0
LINE
  5
D0
330
5C
100
AcDbEntity
  8
0
  6
Continuous
 62
     7
100
AcDbLine
 10
18.09999971388215
 20
47.64999964259976
 30
0.0
 11
18.09999971387942
 21
55.39999964253389
 31
0.0
  0
LINE
  5
D1
330
5C
100
AcDbEntity
  8
0
  6
Continuous
 62
     7
100
AcDbLine
 10
15.89999971400241
 20
39.58048770226035
 30
0.0
 11
18.09999971383265
 21
39.58048770225621
 31
0.0
  0
LINE
  5
D2
330
5C
100
AcDbEntity
  8
0
  6
Continuous
 62
     7
100
AcDbLine
 10
15.89999971400241
 20
39.58048770226035
 30
0.0
 11
15.89999971401794
 21
47.64999964260099
 31
0.0
  0
LINE
  5
D3
330
5C
100
AcDbEntity
  8
0
  6
Continuous
 62
     7
100
AcDbLine
 10
18.09999971388215
 20
47.64999964259976
 30
0.0
 11
15.89999971401794
 21
47.64999964260099
 31
0.0
  0
LINE
  5
D4
330
5C
100
AcDbEntity
  8
0
  6
Continuous
 62
     7
100
AcDbLine
 10
18.09999971382506
 20
35.59999960874447
 30
0.0
 11
15.89999971400016
 21
35.59999960874571
 31
0.0
  0
LINE
  5
D5
330
5C
100
AcDbEntity
  8
0
  6
Continuous
 62
     7
100
AcDbLine
 10
15.89999971399055
 20
18.59999964243495
 30
0.0
 11
15.89999971399338
 21
23.59999896875604
 31
0.0
  0
LINE
  5
D6
330
5C
100
AcDbEntity
  8
0
  6
Continuous
 62
     7
100
AcDbLine
 10
15.89999971400016
 20
35.59999960874571
 30
0.0
 11
15.89999971400241
 21
39.58048770226035
 31
0.0
  0
LINE
  5
D7
330
5C
100
AcDbEntity
  8
0
  6
Continuous
 62
     7
100
AcDbLine
 10
18.09999971384452
 20
18.59999964243372
 30
0.0
 11
15.89999971399055
 21
18.59999964243495
 31
0.0
  0
LINE
  5
D8
330
5C
100
AcDbEntity
  8
0
  6
Continuous
 62
     7
100
AcDbLine
 10
18.09999971384169
 20
23.5999989687548
 30
0.0
 11
15.89999971399338
 21
23.59999896875604
 31
0.0
  0
LINE
  5
D9
330
5C
100
AcDbEntity
  8
0
  6
Continuous
 62
     7
100
AcDbLine
 10
18.09999971384452
 20
18.59999964243372
 30
0.0
 11
18.09999971384169
 21
23.5999989687548
 31
0.0
  0
LINE
  5
DA
330
5C
100
AcDbEntity
  8
0
  6
Continuous
 62
     7
100
AcDbLine
 10
18.09999971382506
 20
35.59999960874447
 30
0.0
 11
18.09999971384169
 21
23.5999989687548
 31
0.0
  0
LINE
  5
DB
330
5C
100
AcDbEntity
  8
0
  6
Continuous
 62
     7
100
AcDbLine
 10
18.09999971383265
 20
39.58048770225621
 30
0.0
 11
18.09999971388215
 21
47.64999964259976
 31
0.0
  0
LINE
  5
DC
330
5C
100
AcDbEntity
  8
0
  6
Continuous
 62
     7
100
AcDbLine
 10
18.09999971382506
 20
35.59999960874447
 30
0.0
 11
18.09999971383265
 21
39.58048770225621
 31
0.0
  0
ENDBLK
  5
5E
330
5C
100
AcDbEntity
  8
0
100
AcDbBlockEnd
  0
BLOCK
  5
61
330
5F
100
AcDbEntity
  8
0
100
AcDbBlockBegin
  2
SA_Links1
 70
     0
 10
17.00000000001
 20
36.99999999999999
 30
0.0
  3
SA_Links1
  1

  0
INSERT
  5
60
330
5F
100
AcDbEntity
  8
0
100
AcDbBlockReference
  2
D_STIO_25_3__4
 10
15.89999971399055
 20
18.59999964243372
 30
0.0
  0
MTEXT
  5
DD
330
5F
100
AcDbEntity
  8
1
 62
     6
100
AcDbMText
 10
17.00000000001
 20
13.60000228864635
 30
0.0
 40
5.0
 41
0.0
 71
     2
 72
     1
  1
 
  7
CONVERTER_11
 73
     1
 44
1.32052821128451
  0
ENDBLK
  5
62
330
5F
100
AcDbEntity
  8
0
100
AcDbBlockEnd
  0
BLOCK
  5
64
330
63
100
AcDbEntity
  8
0
100
AcDbBlockBegin
  2
D_STIO_25_3__5
 70
     0
 10
-115.9906999947995
 20
18.59999964276695
 30
0.0
  3
D_STIO_25_3__5
  1

  0
LINE
  5
DE
330
63
100
AcDbEntity
  8
0
  6
Continuous
 62
     7
100
AcDbLine
 10
-113.7906999948544
 20
26.59999964265408
 30
0.0
 11
-113.7906999948627
 21
39.93994722970425
 31
0.0
  0
LINE
  5
DF
330
63
100
AcDbEntity
  8
0
  6
Continuous
 62
     7
100
AcDbLine
 10
-115.9906999947831
 20
39.939947229703
 30
0.0
 11
-113.7906999948627
 21
39.93994722970425
 31
0.0
  0
LINE
  5
E0
330
63
100
AcDbEntity
  8
0
  6
Continuous
 62
     7
100
AcDbLine
 10
-115.9906999947995
 20
26.59999964265285
 30
0.0
 11
-115.9906999947831
 21
39.939947229703
 31
0.0
  0
LINE
  5
E1
330
63
100
AcDbEntity
  8
0
  6
Continuous
 62
     7
100
AcDbLine
 10
-115.9906999947995
 20
26.59999964265285
 30
0.0
 11
-113.7906999948544
 21
26.59999964265408
 31
0.0
  0
LINE
  5
E2
330
63
100
AcDbEntity
  8
0
  6
Continuous
 62
     7
100
AcDbLine
 10
-113.7906999948544
 20
26.59999964265408
 30
0.0
 11
-113.7906999948499
 21
18.5999996427682
 31
0.0
  0
LINE
  5
E3
330
63
100
AcDbEntity
  8
0
  6
Continuous
 62
     7
100
AcDbLine
 10
-115.9906999947995
 20
26.59999964265285
 30
0.0
 11
-115.9906999947918
 21
18.59999964276695
 31
0.0
  0
LINE
  5
E4
330
63
100
AcDbEntity
  8
0
  6
Continuous
 62
     7
100
AcDbLine
 10
-115.9906999947918
 20
18.59999964276695
 30
0.0
 11
-113.7906999948499
 21
18.5999996427682
 31
0.0
  0
LINE
  5
E5
330
63
100
AcDbEntity
  8
0
  6
Continuous
 62
     7
100
AcDbLine
 10
-115.9906999947726
 20
55.39999964281837
 30
0.0
 11
-115.9906999947788
 21
47.45752725177096
 31
0.0
  0
LINE
  5
E6
330
63
100
AcDbEntity
  8
0
  6
Continuous
 62
     7
100
AcDbLine
 10
-115.9906999947788
 20
47.45752725177096
 30
0.0
 11
-115.9906999947831
 21
39.939947229703
 31
0.0
  0
LINE
  5
E7
330
63
100
AcDbEntity
  8
0
  6
Continuous
 62
     7
100
AcDbLine
 10
-113.7906999948669
 20
47.45752725177221
 30
0.0
 11
-115.9906999947788
 21
47.45752725177096
 31
0.0
  0
LINE
  5
E8
330
63
100
AcDbEntity
  8
0
  6
Continuous
 62
     7
100
AcDbLine
 10
-115.9906999947726
 20
55.39999964281837
 30
0.0
 11
-113.7906999948711
 21
55.39999964281947
 31
0.0
  0
LINE
  5
E9
330
63
100
AcDbEntity
  8
0
  6
Continuous
 62
     7
100
AcDbLine
 10
-113.7906999948711
 20
55.39999964281947
 30
0.0
 11
-113.7906999948669
 21
47.45752725177221
 31
0.0
  0
LINE
  5
EA
330
63
100
AcDbEntity
  8
0
  6
Continuous
 62
     7
100
AcDbLine
 10
-113.7906999948669
 20
47.45752725177221
 30
0.0
 11
-113.7906999948627
 21
39.93994722970425
 31
0.0
  0
ENDBLK
  5
65
330
63
100
AcDbEntity
  8
0
100
AcDbBlockEnd
  0
BLOCK
  5
68
330
66
100
AcDbEntity
  8
0
100
AcDbBlockBegin
  2
SA_Rechts1
 70
     0
 10
-114.890700280847
 20
37.00000000000002
 30
0.0
  3
SA_Rechts1
  1

  0
INSERT
  5
67
330
66
100
AcDbEntity
  8
0
100
AcDbBlockReference
  2
D_STIO_25_3__5
 10
-115.9906999947995
 20
18.59999964276695
 30
0.0
  0
MTEXT
  5
EB
330
66
100
AcDbEntity
  8
1
 62
     6
100
AcDbMText
 10
-114.8907002808477
 20
13.60000228864635
 30
0.0
 40
5.0
 41
0.0
 71
     2
 72
     1
  1
 
  7
CONVERTER_11
 73
     1
 44
1.32052821128451
  0
ENDBLK
  5
69
330
66
100
AcDbEntity
  8
0
100
AcDbBlockEnd
  0
BLOCK
  5
6B
330
6A
100
AcDbEntity
  8
0
100
AcDbBlockBegin
  2
D_STIO_25_3__6
 70
     0
 10
-79.89070026282909
 20
18.59999964243373
 30
0.0
  3
D_STIO_25_3__6
  1

  0
LINE
  5
EC
330
6A
100
AcDbEntity
  8
0
  6
Continuous
 62
     7
100
AcDbLine
 10
-79.89069995419302
 20
39.58048770225622
 30
0.0
 11
-78.75660401051556
 21
47.64999964244621
 31
0.0
  0
LINE
  5
ED
330
6A
100
AcDbEntity
  8
0
  6
Continuous
 62
     7
100
AcDbLine
 10
-7.19069995448278
 20
26.59999964265284
 30
0.0
 11
-7.19069995444369
 21
18.59999964276694
 31
0.0
  0
LINE
  5
EE
330
6A
100
AcDbEntity
  8
0
  6
Continuous
 62
     7
100
AcDbLine
 10
-7.19069995444369
 20
18.59999964276694
 30
0.0
 11
-79.89070026280618
 21
18.59999964243373
 31
0.0
  0
LINE
  5
EF
330
6A
100
AcDbEntity
  8
0
  6
Continuous
 62
     7
100
AcDbLine
 10
-4.99999988959409
 20
47.45752725177096
 30
0.0
 11
-4.99999988955729
 21
39.93994722970299
 31
0.0
  0
LINE
  5
F0
330
6A
100
AcDbEntity
  8
0
  6
Continuous
 62
     7
100
AcDbLine
 10
-6.11624159054939
 20
55.39999964281836
 30
0.0
 11
-4.99999988959409
 21
47.45752725177096
 31
0.0
  0
LINE
  5
F1
330
6A
100
AcDbEntity
  8
0
  6
Continuous
 62
     7
100
AcDbLine
 10
-43.16515834804591
 20
55.3999996425339
 30
0.0
 11
-6.11624159054939
 21
55.39999964281836
 31
0.0
  0
LINE
  5
F2
330
6A
100
AcDbEntity
  8
0
  6
Continuous
 62
     7
100
AcDbLine
 10
-44.25434981694217
 20
47.64999964259977
 30
0.0
 11
-43.16515834804591
 21
55.3999996425339
 31
0.0
  0
LINE
  5
F3
330
6A
100
AcDbEntity
  8
0
  6
Continuous
 62
     7
100
AcDbLine
 10
-78.75660401051556
 20
47.64999964244621
 30
0.0
 11
-44.25434981694217
 21
47.64999964259977
 31
0.0
  0
LINE
  5
F4
330
6A
100
AcDbEntity
  8
0
  6
Continuous
 62
     7
100
AcDbLine
 10
-79.89070026280618
 20
18.59999964243373
 30
0.0
 11
-79.89070026282909
 21
23.59999896875481
 31
0.0
  0
LINE
  5
F5
330
6A
100
AcDbEntity
  8
0
  6
Continuous
 62
     7
100
AcDbLine
 10
-79.89069995417478
 20
35.59999960874448
 30
0.0
 11
-79.89069995419302
 21
39.58048770225622
 31
0.0
  0
ARC
  5
F6
330
6A
100
AcDbEntity
  8
0
  6
Continuous
 62
     7
100
AcDbCircle
 10
7.11838806674791
 20
31.09999964272737
 30
0.0
 40
14.99999999999996
100
AcDbArc
 50
143.890534035822
 51
197.4576031240206
  0
ARC
  5
F7
330
6A
100
AcDbEntity
  8
0
  6
Continuous
 62
     7
100
AcDbCircle
 10
-93.63842705371226
 20
29.59999964235756
 30
0.0
 40
15.00000000000002
100
AcDbArc
 50
336.4218187144545
 51
23.57817833811411
  0
ENDBLK
  5
6C
330
6A
100
AcDbEntity
  8
0
100
AcDbBlockEnd
  0
BLOCK
  5
6F
330
6D
100
AcDbEntity
  8
0
100
AcDbBlockBegin
  2
Vordans1
 70
     0
 10
-42.44535014043814
 20
37.0
 30
0.0
  3
Vordans1
  1

  0
INSERT
  5
6E
330
6D
100
AcDbEntity
  8
0
100
AcDbBlockReference
  2
D_STIO_25_3__6
 10
-79.89070026282909
 20
18.59999964243373
 30
0.0
  0
MTEXT
  5
F8
330
6D
100
AcDbEntity
  8
1
 62
     6
100
AcDbMText
 10
-42.445350140438
 20
13.60000228864635
 30
0.0
 40
5.0
 41
0.0
 71
     2
 72
     1
  1
 
  7
CONVERTER_11
 73
     1
 44
1.32052821128451
  0
DIMENSION
  5
103
330
6D
100
AcDbEntity
  8
1
100
AcDbDimension
  2
*D18
 10
-94.5412957585205
 20
55.3999996425339
 30
0.0
 11
-97.9662957585205
 21
36.8819883249104
 31
0.0
 70
    32
  1
<>
 71
     5
 42
-1.0
 53
90.0
  3
ME10_DIM_11
100
AcDbAlignedDimension
 13
-79.89070026280618
 23
18.59999964243373
 33
0.0
 14
-43.16515834804591
 24
55.3999996425339
 34
0.0
 50
90.0
100
AcDbRotatedDimension
  0
DIMENSION
  5
10E
330
6D
100
AcDbEntity
  8
1
100
AcDbDimension
  2
*D19
 10
-79.89070026280618
 20
0.41192678466343
 30
0.0
 11
-42.3322561912596
 21
3.83692678466343
 31
0.0
 70
    32
  1
<>
 71
     5
 42
-1.0
 53
0.00013888888889
  3
ME10_DIM_12
100
AcDbAlignedDimension
 13
-4.99999988955729
 23
39.93994722970299
 33
0.0
 14
-79.89070026280618
 24
18.59999964243373
 34
0.0
100
AcDbRotatedDimension
  0
ENDBLK
  5
70
330
6D
100
AcDbEntity
  8
0
100
AcDbBlockEnd
  0
BLOCK
  5
72
330
71
100
AcDbEntity
  8
0
100
AcDbBlockBegin
  2
_rahmen
 70
     0
 10
148.4999999911306
 20
-108.6862586352137
 30
0.0
  3
_rahmen
  1

  0
LINE
  5
10F
330
71
100
AcDbEntity
  8
1
  6
DOT_CENTER
 62
     2
100
AcDbLine
 10
22.94185035094318
 20
-82.56125863521362
 30
0.0
 11
28.44185035094318
 21
-82.56125863521362
 31
0.0
  0
LINE
  5
110
330
71
100
AcDbEntity
  8
1
  6
PHANTOM
 62
     2
100
AcDbLine
 10
31.69185035094318
 20
-79.81125863521362
 30
0.0
 11
31.69185035094318
 21
-85.31125863521362
 31
0.0
  0
LINE
  5
111
330
71
100
AcDbEntity
  8
1
  6
PHANTOM
 62
     2
100
AcDbLine
 10
34.44185035094318
 20
-82.56125863521362
 30
0.0
 11
28.94185035094318
 21
-82.56125863521362
 31
0.0
  0
LINE
  5
112
330
71
100
AcDbEntity
  8
1
  6
Continuous
 62
     7
100
AcDbLine
 10
83.25519546438059
 20
-95.18625863521362
 30
0.0
 11
83.25519546438059
 21
-86.68625863521353
 31
0.0
  0
LINE
  5
113
330
71
100
AcDbEntity
  8
1
  6
Continuous
 62
     6
100
AcDbLine
 10
55.3551954643805
 20
-86.68625863521353
 30
0.0
 11
148.4999999911323
 21
-86.68625863521353
 31
0.0
  0
LINE
  5
114
330
71
100
AcDbEntity
  8
1
  6
Continuous
 62
     7
100
AcDbLine
 10
18.95519546438058
 20
-86.68625863521353
 30
0.0
 11
18.95519546438058
 21
-78.18625863521353
 31
0.0
  0
LINE
  5
115
330
71
100
AcDbEntity
  8
1
  6
Continuous
 62
     7
100
AcDbLine
 10
55.3551954643805
 20
-86.68625863521353
 30
0.0
 11
55.3551954643805
 21
-78.18625863521353
 31
0.0
  0
LINE
  5
116
330
71
100
AcDbEntity
  8
1
  6
Continuous
 62
     7
100
AcDbLine
 10
113.0815917094535
 20
-78.18625863521353
 30
0.0
 11
113.0815917094535
 21
-86.68625863521353
 31
0.0
  0
LINE
  5
117
330
71
100
AcDbEntity
  8
1
  6
Continuous
 62
     7
100
AcDbLine
 10
139.5815917094531
 20
-78.18625863521353
 30
0.0
 11
139.5815917094531
 21
-86.68625863521353
 31
0.0
  0
LINE
  5
118
330
71
100
AcDbEntity
  8
1
  6
Continuous
 62
     6
100
AcDbLine
 10
-50.04480453561939
 20
-103.6862586352135
 30
0.0
 11
-95.00000000886939
 21
-103.6862586352135
 31
0.0
  0
LINE
  5
119
330
71
100
AcDbEntity
  8
1
  6
Continuous
 62
     7
100
AcDbLine
 10
148.4999999911319
 20
-95.18625863521353
 30
0.0
 11
55.3551954643805
 21
-95.18625863521353
 31
0.0
  0
LINE
  5
11A
102
{ACAD_REACTORS
330
22C
330
22D
102
}
330
71
100
AcDbEntity
  8
0
  6
Continuous
 62
     2
100
AcDbLine
 10
32.66262440614798
 20
-94.38596951955023
 30
0.0
 11
32.66262440614798
 21
-93.51345251274694
 31
0.0
  0
LINE
  5
11B
102
{ACAD_REACTORS
330
22C
330
22D
102
}
330
71
100
AcDbEntity
  8
0
  6
Continuous
 62
     2
100
AcDbLine
 10
32.66262440614798
 20
-95.34573822703314
 30
0.0
 11
32.66262440614798
 21
-96.21825523383635
 31
0.0
  0
LINE
  5
11C
102
{ACAD_REACTORS
330
22E
330
22F
102
}
330
71
100
AcDbEntity
  8
0
  6
Continuous
 62
     2
100
AcDbLine
 10
47.99566854243849
 20
-94.12421441750973
 30
0.0
 11
49.0993078420066
 21
-94.12421441750973
 31
0.0
  0
LINE
  5
11D
102
{ACAD_REACTORS
330
22E
330
22F
102
}
330
71
100
AcDbEntity
  8
0
  6
Continuous
 62
     2
100
AcDbLine
 10
48.7653258853999
 20
-95.34573822703362
 30
0.0
 11
48.7653258853999
 21
-96.21825523383694
 31
0.0
  0
LINE
  5
11E
102
{ACAD_REACTORS
330
238
330
239
102
}
330
71
100
AcDbEntity
  8
0
  6
Continuous
 62
     2
100
AcDbLine
 10
46.90456927001998
 20
-93.03356815902293
 30
0.0
 11
48.30252231696028
 21
-91.45270916524794
 31
0.0
  0
LINE
  5
11F
102
{ACAD_REACTORS
330
238
330
239
102
}
330
71
100
AcDbEntity
  8
0
  6
Continuous
 62
     2
100
AcDbLine
 10
46.9999926861928
 20
-89.97975863521174
 30
0.0
 11
48.30252231696028
 21
-91.45270916524794
 31
0.0
  0
LINE
  5
120
102
{ACAD_REACTORS
330
238
330
239
102
}
330
71
100
AcDbEntity
  8
0
  6
Continuous
 62
     2
100
AcDbLine
 10
49.60505194772668
 20
-89.97975863521174
 30
0.0
 11
51.0077761654739
 21
-89.97975863521174
 31
0.0
  0
LINE
  5
121
102
{ACAD_REACTORS
330
238
330
239
102
}
330
71
100
AcDbEntity
  8
0
  6
Continuous
 62
     2
100
AcDbLine
 10
48.30729348776819
 20
-93.03356815902293
 30
0.0
 11
49.00388442583389
 21
-92.24583637372922
 31
0.0
  0
LINE
  5
122
102
{ACAD_REACTORS
330
238
330
239
102
}
330
71
100
AcDbEntity
  8
0
  6
Continuous
 62
     2
100
AcDbLine
 10
48.30729348776819
 20
-93.03356815902293
 30
0.0
 11
46.90456927001998
 21
-93.03356815902293
 31
0.0
  0
LINE
  5
123
102
{ACAD_REACTORS
330
23A
330
23B
102
}
330
71
100
AcDbEntity
  8
0
  6
Continuous
 62
     2
100
AcDbLine
 10
46.7852899998031
 20
-93.03356815902293
 30
0.0
 11
45.5447855895502
 21
-93.03356815902293
 31
0.0
  0
LINE
  5
124
102
{ACAD_REACTORS
330
23C
330
23D
102
}
330
71
100
AcDbEntity
  8
0
  6
Continuous
 62
     2
100
AcDbLine
 10
44.67680598139509
 20
-95.17123482567274
 30
0.0
 11
44.37664074420499
 21
-94.40341985968604
 31
0.0
  0
LINE
  5
125
102
{ACAD_REACTORS
330
23C
330
23D
102
}
330
71
100
AcDbEntity
  8
0
  6
Continuous
 62
     2
100
AcDbLine
 10
44.07647550701259
 20
-95.17123482567274
 30
0.0
 11
44.67680598139509
 21
-95.17123482567274
 31
0.0
  0
LINE
  5
126
102
{ACAD_REACTORS
330
23C
330
23D
102
}
330
71
100
AcDbEntity
  8
0
  6
Continuous
 62
     2
100
AcDbLine
 10
42.3584354921388
 20
-96.39275863519723
 30
0.0
 11
43.59893990239178
 21
-96.39275863519723
 31
0.0
  0
LINE
  5
127
102
{ACAD_REACTORS
330
23C
330
23D
102
}
330
71
100
AcDbEntity
  8
0
  6
Continuous
 62
     2
100
AcDbLine
 10
43.7563885390781
 20
-93.33894911138614
 30
0.0
 11
44.9968929493308
 21
-93.33894911138614
 31
0.0
  0
LINE
  5
128
102
{ACAD_REACTORS
330
23C
330
23D
102
}
330
71
100
AcDbEntity
  8
0
  6
Continuous
 62
     2
100
AcDbLine
 10
44.9968929493308
 20
-93.33894911138614
 30
0.0
 11
46.3948459962711
 21
-96.39275863519723
 31
0.0
  0
LINE
  5
129
102
{ACAD_REACTORS
330
23C
330
23D
102
}
330
71
100
AcDbEntity
  8
0
  6
Continuous
 62
     2
100
AcDbLine
 10
45.15434158601718
 20
-96.39275863519723
 30
0.0
 11
44.9428615325414
 21
-95.85179809097934
 31
0.0
  0
LINE
  5
12A
102
{ACAD_REACTORS
330
23E
330
23F
102
}
330
71
100
AcDbEntity
  8
0
  6
Continuous
 62
     2
100
AcDbLine
 10
41.01202239043118
 20
-96.39275863519723
 30
0.0
 11
42.2048150925977
 21
-96.39275863519723
 31
0.0
  0
LINE
  5
12B
102
{ACAD_REACTORS
330
23E
330
23F
102
}
330
71
100
AcDbEntity
  8
0
  6
Continuous
 62
     2
100
AcDbLine
 10
41.01202239043118
 20
-94.12421441750973
 30
0.0
 11
41.01202239043118
 21
-96.39275863519723
 31
0.0
  0
LINE
  5
12C
102
{ACAD_REACTORS
330
23E
330
23F
102
}
330
71
100
AcDbEntity
  8
0
  6
Continuous
 62
     2
100
AcDbLine
 10
40.20092335295658
 20
-93.33894911138614
 30
0.0
 11
40.20092335295658
 21
-94.12421441750973
 31
0.0
  0
LINE
  5
12D
102
{ACAD_REACTORS
330
240
330
241
102
}
330
71
100
AcDbEntity
  8
0
  6
Continuous
 62
     2
100
AcDbLine
 10
41.68013723452918
 20
-93.03356815902293
 30
0.0
 11
42.8729299366957
 21
-93.03356815902293
 31
0.0
  0
LINE
  5
12E
102
{ACAD_REACTORS
330
240
330
241
102
}
330
71
100
AcDbEntity
  8
0
  6
Continuous
 62
     2
100
AcDbLine
 10
44.1134343469497
 20
-91.28853414541692
 30
0.0
 11
42.8729299366957
 21
-89.97975863521174
 31
0.0
  0
LINE
  5
12F
102
{ACAD_REACTORS
330
240
330
241
102
}
330
71
100
AcDbEntity
  8
0
  6
Continuous
 62
     2
100
AcDbLine
 10
45.3062270491163
 20
-89.97975863521174
 30
0.0
 11
44.1134343469497
 21
-89.97975863521174
 31
0.0
  0
LINE
  5
130
102
{ACAD_REACTORS
330
240
330
241
102
}
330
71
100
AcDbEntity
  8
0
  6
Continuous
 62
     2
100
AcDbLine
 10
45.3062270491163
 20
-93.03356815902293
 30
0.0
 11
45.3062270491163
 21
-89.97975863521174
 31
0.0
  0
LINE
  5
131
102
{ACAD_REACTORS
330
240
330
241
102
}
330
71
100
AcDbEntity
  8
0
  6
Continuous
 62
     2
100
AcDbLine
 10
44.1134343469497
 20
-93.03356815902293
 30
0.0
 11
45.3062270491163
 21
-93.03356815902293
 31
0.0
  0
LINE
  5
132
102
{ACAD_REACTORS
330
240
330
241
102
}
330
71
100
AcDbEntity
  8
0
  6
Continuous
 62
     2
100
AcDbLine
 10
42.8729299366957
 20
-91.72479264881824
 30
0.0
 11
44.1134343469497
 21
-93.03356815902293
 31
0.0
  0
LINE
  5
133
102
{ACAD_REACTORS
330
242
330
243
102
}
330
71
100
AcDbEntity
  8
0
  6
Continuous
 62
     2
100
AcDbLine
 10
38.86499552652998
 20
-94.64772462159124
 30
0.0
 11
37.62449111627709
 21
-93.33894911138614
 31
0.0
  0
LINE
  5
134
102
{ACAD_REACTORS
330
242
330
243
102
}
330
71
100
AcDbEntity
  8
0
  6
Continuous
 62
     2
100
AcDbLine
 10
38.86499552652998
 20
-93.33894911138614
 30
0.0
 11
38.86499552652998
 21
-94.64772462159124
 31
0.0
  0
LINE
  5
135
102
{ACAD_REACTORS
330
242
330
243
102
}
330
71
100
AcDbEntity
  8
0
  6
Continuous
 62
     2
100
AcDbLine
 10
40.05778822869638
 20
-93.33894911138614
 30
0.0
 11
38.86499552652998
 21
-93.33894911138614
 31
0.0
  0
LINE
  5
136
102
{ACAD_REACTORS
330
242
330
243
102
}
330
71
100
AcDbEntity
  8
0
  6
Continuous
 62
     2
100
AcDbLine
 10
40.05778822869638
 20
-96.39275863519723
 30
0.0
 11
40.05778822869638
 21
-93.33894911138614
 31
0.0
  0
LINE
  5
137
102
{ACAD_REACTORS
330
242
330
243
102
}
330
71
100
AcDbEntity
  8
0
  6
Continuous
 62
     2
100
AcDbLine
 10
37.62449111627709
 20
-95.08398312499264
 30
0.0
 11
38.86499552652998
 21
-96.39275863519723
 31
0.0
  0
LINE
  5
138
102
{ACAD_REACTORS
330
242
330
243
102
}
330
71
100
AcDbEntity
  8
0
  6
Continuous
 62
     2
100
AcDbLine
 10
37.62449111627709
 20
-96.39275863519723
 30
0.0
 11
37.62449111627709
 21
-95.08398312499264
 31
0.0
  0
LINE
  5
139
102
{ACAD_REACTORS
330
232
330
233
102
}
330
71
100
AcDbEntity
  8
0
  6
Continuous
 62
     2
100
AcDbLine
 10
40.1056508676686
 20
-90.67777224065472
 30
0.0
 11
41.44157869409628
 21
-90.67777224065472
 31
0.0
  0
LINE
  5
13A
102
{ACAD_REACTORS
330
232
330
233
102
}
330
71
100
AcDbEntity
  8
0
  6
Continuous
 62
     2
100
AcDbLine
 10
40.1056508676686
 20
-92.33555455358044
 30
0.0
 11
40.1056508676686
 21
-91.85567019983873
 31
0.0
  0
LINE
  5
13B
102
{ACAD_REACTORS
330
232
330
233
102
}
330
71
100
AcDbEntity
  8
0
  6
Continuous
 62
     2
100
AcDbLine
 10
41.44157869409628
 20
-92.33555455358044
 30
0.0
 11
40.1056508676686
 21
-92.33555455358044
 31
0.0
  0
LINE
  5
13C
102
{ACAD_REACTORS
330
232
330
233
102
}
330
71
100
AcDbEntity
  8
0
  6
Continuous
 62
     2
100
AcDbLine
 10
41.44157869409628
 20
-93.03356815902293
 30
0.0
 11
41.44157869409628
 21
-92.33555455358044
 31
0.0
  0
LINE
  5
13D
102
{ACAD_REACTORS
330
232
330
233
102
}
330
71
100
AcDbEntity
  8
0
  6
Continuous
 62
     2
100
AcDbLine
 10
38.29125897031528
 20
-93.03356815902293
 30
0.0
 11
41.44157869409628
 21
-93.03356815902293
 31
0.0
  0
LINE
  5
13E
102
{ACAD_REACTORS
330
232
330
233
102
}
330
71
100
AcDbEntity
  8
0
  6
Continuous
 62
     2
100
AcDbLine
 10
38.29125897031528
 20
-89.97975863521174
 30
0.0
 11
41.44157869409628
 21
-89.97975863521174
 31
0.0
  0
LINE
  5
13F
102
{ACAD_REACTORS
330
232
330
233
102
}
330
71
100
AcDbEntity
  8
0
  6
Continuous
 62
     2
100
AcDbLine
 10
41.44157869409628
 20
-90.67777224065472
 30
0.0
 11
41.44157869409628
 21
-89.97975863521174
 31
0.0
  0
LINE
  5
140
102
{ACAD_REACTORS
330
244
330
245
102
}
330
71
100
AcDbEntity
  8
0
  6
Continuous
 62
     2
100
AcDbLine
 10
35.42990347517528
 20
-91.04859196854633
 30
0.0
 11
35.42990347517528
 21
-89.97975863521174
 31
0.0
  0
LINE
  5
141
102
{ACAD_REACTORS
330
244
330
245
102
}
330
71
100
AcDbEntity
  8
0
  6
Continuous
 62
     2
100
AcDbLine
 10
35.42990347517528
 20
-89.97975863521174
 30
0.0
 11
36.62269617734168
 21
-89.97975863521174
 31
0.0
  0
LINE
  5
142
102
{ACAD_REACTORS
330
244
330
245
102
}
330
71
100
AcDbEntity
  8
0
  6
Continuous
 62
     2
100
AcDbLine
 10
35.42990347517528
 20
-91.89929605017912
 30
0.0
 11
34.3802458972678
 21
-91.89929605017912
 31
0.0
  0
LINE
  5
143
102
{ACAD_REACTORS
330
244
330
245
102
}
330
71
100
AcDbEntity
  8
0
  6
Continuous
 62
     2
100
AcDbLine
 10
34.3802458972678
 20
-91.89929605017912
 30
0.0
 11
34.3802458972678
 21
-93.03356815902293
 31
0.0
  0
LINE
  5
144
102
{ACAD_REACTORS
330
244
330
245
102
}
330
71
100
AcDbEntity
  8
0
  6
Continuous
 62
     2
100
AcDbLine
 10
33.1874531951012
 20
-89.97975863521174
 30
0.0
 11
33.1874531951012
 21
-93.03356815902293
 31
0.0
  0
LINE
  5
145
102
{ACAD_REACTORS
330
236
330
237
102
}
330
71
100
AcDbEntity
  8
0
  6
Continuous
 62
     2
100
AcDbLine
 10
31.2312731635476
 20
-91.34859212999405
 30
0.0
 11
31.2312731635476
 21
-90.64286448065184
 31
0.0
  0
LINE
  5
146
102
{ACAD_REACTORS
330
236
330
237
102
}
330
71
100
AcDbEntity
  8
0
  6
Continuous
 62
     2
100
AcDbLine
 10
29.99076875329348
 20
-93.03356815902293
 30
0.0
 11
31.2312731635476
 21
-93.03356815902293
 31
0.0
  0
LINE
  5
147
102
{ACAD_REACTORS
330
236
330
237
102
}
330
71
100
AcDbEntity
  8
0
  6
Continuous
 62
     2
100
AcDbLine
 10
31.2312731635476
 20
-93.03356815902293
 30
0.0
 11
31.2312731635476
 21
-92.09048991787913
 31
0.0
  0
LINE
  5
148
102
{ACAD_REACTORS
330
230
330
231
102
}
330
71
100
AcDbEntity
  8
0
  6
Continuous
 62
     2
100
AcDbLine
 10
25.6858229040821
 20
-95.68020307964034
 30
0.0
 11
24.20998964307248
 21
-95.68020307964034
 31
0.0
  0
LINE
  5
149
102
{ACAD_REACTORS
330
230
330
231
102
}
330
71
100
AcDbEntity
  8
0
  6
Continuous
 62
     2
100
AcDbLine
 10
23.19185035094318
 20
-90.40400325061373
 30
0.0
 11
23.19185035094318
 21
-95.96851401981394
 31
0.0
  0
LINE
  5
14A
102
{ACAD_REACTORS
330
230
330
231
102
}
330
71
100
AcDbEntity
  8
0
  6
Continuous
 62
     2
100
AcDbLine
 10
23.61609496632599
 20
-89.97975863522993
 30
0.0
 11
29.08940705704279
 21
-89.97975863522993
 31
0.0
  0
LINE
  5
14B
102
{ACAD_REACTORS
330
230
330
231
102
}
330
71
100
AcDbEntity
  8
0
  6
Continuous
 62
     2
100
AcDbLine
 10
29.51365167242668
 20
-90.40400325061373
 30
0.0
 11
29.51365167242668
 21
-95.96851401981394
 31
0.0
  0
LINE
  5
14C
102
{ACAD_REACTORS
330
230
330
231
102
}
330
71
100
AcDbEntity
  8
0
  6
Continuous
 62
     2
100
AcDbLine
 10
29.08940705704279
 20
-96.39275863519723
 30
0.0
 11
23.61609496632599
 21
-96.39275863519723
 31
0.0
  0
LINE
  5
14D
102
{ACAD_REACTORS
330
230
330
231
102
}
330
71
100
AcDbEntity
  8
0
  6
Continuous
 62
     2
100
AcDbLine
 10
26.0015398271587
 20
-95.36448615656363
 30
0.0
 11
26.0015398271587
 21
-93.83371522503202
 31
0.0
  0
LINE
  5
14E
102
{ACAD_REACTORS
330
230
330
231
102
}
330
71
100
AcDbEntity
  8
0
  6
Continuous
 62
     2
100
AcDbLine
 10
26.0015398271587
 20
-91.61205573290704
 30
0.0
 11
26.0015398271587
 21
-91.00803111384653
 31
0.0
  0
LINE
  5
14F
102
{ACAD_REACTORS
330
230
330
231
102
}
330
71
100
AcDbEntity
  8
0
  6
Continuous
 62
     2
100
AcDbLine
 10
24.20998964307248
 20
-90.69231419077033
 30
0.0
 11
25.6858229040821
 21
-90.69231419077033
 31
0.0
  0
LINE
  5
150
102
{ACAD_REACTORS
330
230
330
231
102
}
330
71
100
AcDbEntity
  8
0
  6
Continuous
 62
     2
100
AcDbLine
 10
23.89427271999679
 20
-91.00803111384653
 30
0.0
 11
23.89427271999679
 21
-95.36448615656363
 31
0.0
  0
LINE
  5
151
102
{ACAD_REACTORS
330
236
330
237
102
}
330
71
100
AcDbEntity
  8
0
  6
Continuous
 62
     2
100
AcDbLine
 10
31.2312731635476
 20
-92.09048991787913
 30
0.0
 11
31.99004075132788
 21
-92.09048991787913
 31
0.0
  0
LINE
  5
152
102
{ACAD_REACTORS
330
236
330
237
102
}
330
71
100
AcDbEntity
  8
0
  6
Continuous
 62
     2
100
AcDbLine
 10
29.99076875329348
 20
-89.97975863521174
 30
0.0
 11
31.99004075132788
 21
-89.97975863521174
 31
0.0
  0
LINE
  5
153
102
{ACAD_REACTORS
330
236
330
237
102
}
330
71
100
AcDbEntity
  8
0
  6
Continuous
 62
     2
100
AcDbLine
 10
29.99076875329348
 20
-89.97975863521174
 30
0.0
 11
29.99076875329348
 21
-93.03356815902293
 31
0.0
  0
LINE
  5
154
102
{ACAD_REACTORS
330
236
330
237
102
}
330
71
100
AcDbEntity
  8
0
  6
Continuous
 62
     2
100
AcDbLine
 10
31.2312731635476
 20
-91.34859212999405
 30
0.0
 11
31.5485682250895
 21
-91.34859212999405
 31
0.0
  0
LINE
  5
155
102
{ACAD_REACTORS
330
236
330
237
102
}
330
71
100
AcDbEntity
  8
0
  6
Continuous
 62
     2
100
AcDbLine
 10
31.2312731635476
 20
-90.64286448065184
 30
0.0
 11
31.5485682250895
 21
-90.64286448065184
 31
0.0
  0
LINE
  5
156
102
{ACAD_REACTORS
330
244
330
245
102
}
330
71
100
AcDbEntity
  8
0
  6
Continuous
 62
     2
100
AcDbLine
 10
34.3802458972678
 20
-91.04859196854633
 30
0.0
 11
35.42990347517528
 21
-91.04859196854633
 31
0.0
  0
LINE
  5
157
102
{ACAD_REACTORS
330
244
330
245
102
}
330
71
100
AcDbEntity
  8
0
  6
Continuous
 62
     2
100
AcDbLine
 10
34.3802458972678
 20
-89.97975863521174
 30
0.0
 11
34.3802458972678
 21
-91.04859196854633
 31
0.0
  0
LINE
  5
158
102
{ACAD_REACTORS
330
244
330
245
102
}
330
71
100
AcDbEntity
  8
0
  6
Continuous
 62
     2
100
AcDbLine
 10
33.1874531951012
 20
-89.97975863521174
 30
0.0
 11
34.3802458972678
 21
-89.97975863521174
 31
0.0
  0
LINE
  5
159
102
{ACAD_REACTORS
330
244
330
245
102
}
330
71
100
AcDbEntity
  8
0
  6
Continuous
 62
     2
100
AcDbLine
 10
34.3802458972678
 20
-93.03356815902293
 30
0.0
 11
33.1874531951012
 21
-93.03356815902293
 31
0.0
  0
LINE
  5
15A
102
{ACAD_REACTORS
330
244
330
245
102
}
330
71
100
AcDbEntity
  8
0
  6
Continuous
 62
     2
100
AcDbLine
 10
35.42990347517528
 20
-93.03356815902293
 30
0.0
 11
35.42990347517528
 21
-91.89929605017912
 31
0.0
  0
LINE
  5
15B
102
{ACAD_REACTORS
330
244
330
245
102
}
330
71
100
AcDbEntity
  8
0
  6
Continuous
 62
     2
100
AcDbLine
 10
36.62269617734168
 20
-93.03356815902293
 30
0.0
 11
35.42990347517528
 21
-93.03356815902293
 31
0.0
  0
LINE
  5
15C
102
{ACAD_REACTORS
330
244
330
245
102
}
330
71
100
AcDbEntity
  8
0
  6
Continuous
 62
     2
100
AcDbLine
 10
36.62269617734168
 20
-89.97975863521174
 30
0.0
 11
36.62269617734168
 21
-93.03356815902293
 31
0.0
  0
LINE
  5
15D
102
{ACAD_REACTORS
330
232
330
233
102
}
330
71
100
AcDbEntity
  8
0
  6
Continuous
 62
     2
100
AcDbLine
 10
40.1056508676686
 20
-91.85567019983873
 30
0.0
 11
41.44157869409628
 21
-91.85567019983873
 31
0.0
  0
LINE
  5
15E
102
{ACAD_REACTORS
330
232
330
233
102
}
330
71
100
AcDbEntity
  8
0
  6
Continuous
 62
     2
100
AcDbLine
 10
41.44157869409628
 20
-91.85567019983873
 30
0.0
 11
41.44157869409628
 21
-91.15765659439643
 31
0.0
  0
LINE
  5
15F
102
{ACAD_REACTORS
330
232
330
233
102
}
330
71
100
AcDbEntity
  8
0
  6
Continuous
 62
     2
100
AcDbLine
 10
41.44157869409628
 20
-91.15765659439643
 30
0.0
 11
40.1056508676686
 21
-91.15765659439643
 31
0.0
  0
LINE
  5
160
102
{ACAD_REACTORS
330
232
330
233
102
}
330
71
100
AcDbEntity
  8
0
  6
Continuous
 62
     2
100
AcDbLine
 10
40.1056508676686
 20
-91.15765659439643
 30
0.0
 11
40.1056508676686
 21
-90.67777224065472
 31
0.0
  0
LINE
  5
161
102
{ACAD_REACTORS
330
242
330
243
102
}
330
71
100
AcDbEntity
  8
0
  6
Continuous
 62
     2
100
AcDbLine
 10
36.43169841410949
 20
-96.39275863519723
 30
0.0
 11
37.62449111627709
 21
-96.39275863519723
 31
0.0
  0
LINE
  5
162
102
{ACAD_REACTORS
330
242
330
243
102
}
330
71
100
AcDbEntity
  8
0
  6
Continuous
 62
     2
100
AcDbLine
 10
38.86499552652998
 20
-96.39275863519723
 30
0.0
 11
40.05778822869638
 21
-96.39275863519723
 31
0.0
  0
LINE
  5
163
102
{ACAD_REACTORS
330
242
330
243
102
}
330
71
100
AcDbEntity
  8
0
  6
Continuous
 62
     2
100
AcDbLine
 10
37.62449111627709
 20
-93.33894911138614
 30
0.0
 11
36.43169841410949
 21
-93.33894911138614
 31
0.0
  0
LINE
  5
164
102
{ACAD_REACTORS
330
242
330
243
102
}
330
71
100
AcDbEntity
  8
0
  6
Continuous
 62
     2
100
AcDbLine
 10
36.43169841410949
 20
-93.33894911138614
 30
0.0
 11
36.43169841410949
 21
-96.39275863519723
 31
0.0
  0
LINE
  5
165
102
{ACAD_REACTORS
330
240
330
241
102
}
330
71
100
AcDbEntity
  8
0
  6
Continuous
 62
     2
100
AcDbLine
 10
44.1134343469497
 20
-89.97975863521174
 30
0.0
 11
44.1134343469497
 21
-91.28853414541692
 31
0.0
  0
LINE
  5
166
102
{ACAD_REACTORS
330
240
330
241
102
}
330
71
100
AcDbEntity
  8
0
  6
Continuous
 62
     2
100
AcDbLine
 10
42.8729299366957
 20
-89.97975863521174
 30
0.0
 11
41.68013723452918
 21
-89.97975863521174
 31
0.0
  0
LINE
  5
167
102
{ACAD_REACTORS
330
240
330
241
102
}
330
71
100
AcDbEntity
  8
0
  6
Continuous
 62
     2
100
AcDbLine
 10
41.68013723452918
 20
-89.97975863521174
 30
0.0
 11
41.68013723452918
 21
-93.03356815902293
 31
0.0
  0
LINE
  5
168
102
{ACAD_REACTORS
330
240
330
241
102
}
330
71
100
AcDbEntity
  8
0
  6
Continuous
 62
     2
100
AcDbLine
 10
42.8729299366957
 20
-93.03356815902293
 30
0.0
 11
42.8729299366957
 21
-91.72479264881824
 31
0.0
  0
LINE
  5
169
102
{ACAD_REACTORS
330
23E
330
23F
102
}
330
71
100
AcDbEntity
  8
0
  6
Continuous
 62
     2
100
AcDbLine
 10
42.2048150925977
 20
-96.39275863519723
 30
0.0
 11
42.2048150925977
 21
-94.12421441750973
 31
0.0
  0
LINE
  5
16A
102
{ACAD_REACTORS
330
23E
330
23F
102
}
330
71
100
AcDbEntity
  8
0
  6
Continuous
 62
     2
100
AcDbLine
 10
42.2048150925977
 20
-94.12421441750973
 30
0.0
 11
43.0159141300702
 21
-94.12421441750973
 31
0.0
  0
LINE
  5
16B
102
{ACAD_REACTORS
330
23E
330
23F
102
}
330
71
100
AcDbEntity
  8
0
  6
Continuous
 62
     2
100
AcDbLine
 10
43.0159141300702
 20
-94.12421441750973
 30
0.0
 11
43.0159141300702
 21
-93.33894911138614
 31
0.0
  0
LINE
  5
16C
102
{ACAD_REACTORS
330
23E
330
23F
102
}
330
71
100
AcDbEntity
  8
0
  6
Continuous
 62
     2
100
AcDbLine
 10
43.0159141300702
 20
-93.33894911138614
 30
0.0
 11
40.20092335295658
 21
-93.33894911138614
 31
0.0
  0
LINE
  5
16D
102
{ACAD_REACTORS
330
23E
330
23F
102
}
330
71
100
AcDbEntity
  8
0
  6
Continuous
 62
     2
100
AcDbLine
 10
40.20092335295658
 20
-94.12421441750973
 30
0.0
 11
41.01202239043118
 21
-94.12421441750973
 31
0.0
  0
LINE
  5
16E
102
{ACAD_REACTORS
330
23C
330
23D
102
}
330
71
100
AcDbEntity
  8
0
  6
Continuous
 62
     2
100
AcDbLine
 10
43.81041995586759
 20
-95.85179809097934
 30
0.0
 11
44.9428615325414
 21
-95.85179809097934
 31
0.0
  0
LINE
  5
16F
102
{ACAD_REACTORS
330
23C
330
23D
102
}
330
71
100
AcDbEntity
  8
0
  6
Continuous
 62
     2
100
AcDbLine
 10
46.3948459962711
 20
-96.39275863519723
 30
0.0
 11
45.15434158601718
 21
-96.39275863519723
 31
0.0
  0
LINE
  5
170
102
{ACAD_REACTORS
330
23C
330
23D
102
}
330
71
100
AcDbEntity
  8
0
  6
Continuous
 62
     2
100
AcDbLine
 10
43.7563885390781
 20
-93.33894911138614
 30
0.0
 11
42.3584354921388
 21
-96.39275863519723
 31
0.0
  0
LINE
  5
171
102
{ACAD_REACTORS
330
23C
330
23D
102
}
330
71
100
AcDbEntity
  8
0
  6
Continuous
 62
     2
100
AcDbLine
 10
43.59893990239178
 20
-96.39275863519723
 30
0.0
 11
43.81041995586759
 21
-95.85179809097934
 31
0.0
  0
LINE
  5
172
102
{ACAD_REACTORS
330
23C
330
23D
102
}
330
71
100
AcDbEntity
  8
0
  6
Continuous
 62
     2
100
AcDbLine
 10
44.07647550701259
 20
-95.17123482567274
 30
0.0
 11
44.37664074420499
 21
-94.40341985968604
 31
0.0
  0
LINE
  5
173
102
{ACAD_REACTORS
330
23A
330
23B
102
}
330
71
100
AcDbEntity
  8
0
  6
Continuous
 62
     2
100
AcDbLine
 10
45.5447855895502
 20
-93.03356815902293
 30
0.0
 11
45.5447855895502
 21
-89.97975863521174
 31
0.0
  0
LINE
  5
174
102
{ACAD_REACTORS
330
23A
330
23B
102
}
330
71
100
AcDbEntity
  8
0
  6
Continuous
 62
     2
100
AcDbLine
 10
46.7852899998031
 20
-89.97975863521174
 30
0.0
 11
46.7852899998031
 21
-93.03356815902293
 31
0.0
  0
LINE
  5
175
102
{ACAD_REACTORS
330
23A
330
23B
102
}
330
71
100
AcDbEntity
  8
0
  6
Continuous
 62
     2
100
AcDbLine
 10
45.5447855895502
 20
-89.97975863521174
 30
0.0
 11
46.7852899998031
 21
-89.97975863521174
 31
0.0
  0
LINE
  5
176
102
{ACAD_REACTORS
330
238
330
239
102
}
330
71
100
AcDbEntity
  8
0
  6
Continuous
 62
     2
100
AcDbLine
 10
49.00388442583389
 20
-92.24583637372922
 30
0.0
 11
49.70047536389939
 21
-93.03356815902293
 31
0.0
  0
LINE
  5
177
102
{ACAD_REACTORS
330
238
330
239
102
}
330
71
100
AcDbEntity
  8
0
  6
Continuous
 62
     2
100
AcDbLine
 10
49.70047536389939
 20
-93.03356815902293
 30
0.0
 11
51.10319958164769
 21
-93.03356815902293
 31
0.0
  0
LINE
  5
178
102
{ACAD_REACTORS
330
238
330
239
102
}
330
71
100
AcDbEntity
  8
0
  6
Continuous
 62
     2
100
AcDbLine
 10
49.70524653470739
 20
-91.45270916524794
 30
0.0
 11
51.10319958164769
 21
-93.03356815902293
 31
0.0
  0
LINE
  5
179
102
{ACAD_REACTORS
330
238
330
239
102
}
330
71
100
AcDbEntity
  8
0
  6
Continuous
 62
     2
100
AcDbLine
 10
49.70524653470739
 20
-91.45270916524794
 30
0.0
 11
51.0077761654739
 21
-89.97975863521174
 31
0.0
  0
LINE
  5
17A
102
{ACAD_REACTORS
330
238
330
239
102
}
330
71
100
AcDbEntity
  8
0
  6
Continuous
 62
     2
100
AcDbLine
 10
49.00388442583389
 20
-90.65958195676723
 30
0.0
 11
49.60505194772668
 21
-89.97975863521174
 31
0.0
  0
LINE
  5
17B
102
{ACAD_REACTORS
330
238
330
239
102
}
330
71
100
AcDbEntity
  8
0
  6
Continuous
 62
     2
100
AcDbLine
 10
48.40271690394209
 20
-89.97975863521174
 30
0.0
 11
49.00388442583389
 21
-90.65958195676723
 31
0.0
  0
LINE
  5
17C
102
{ACAD_REACTORS
330
238
330
239
102
}
330
71
100
AcDbEntity
  8
0
  6
Continuous
 62
     2
100
AcDbLine
 10
48.40271690394209
 20
-89.97975863521174
 30
0.0
 11
46.9999926861928
 21
-89.97975863521174
 31
0.0
  0
LINE
  5
17D
102
{ACAD_REACTORS
330
22E
330
22F
102
}
330
71
100
AcDbEntity
  8
0
  6
Continuous
 62
     2
100
AcDbLine
 10
49.0993078420066
 20
-96.39275863519723
 30
0.0
 11
50.2921005441743
 21
-96.39275863519723
 31
0.0
  0
LINE
  5
17E
102
{ACAD_REACTORS
330
22E
330
22F
102
}
330
71
100
AcDbEntity
  8
0
  6
Continuous
 62
     2
100
AcDbLine
 10
50.2921005441743
 20
-96.39275863519723
 30
0.0
 11
50.2921005441743
 21
-94.12421441750973
 31
0.0
  0
LINE
  5
17F
102
{ACAD_REACTORS
330
22E
330
22F
102
}
330
71
100
AcDbEntity
  8
0
  6
Continuous
 62
     2
100
AcDbLine
 10
50.2921005441743
 20
-94.12421441750973
 30
0.0
 11
51.10319958164769
 21
-94.12421441750973
 31
0.0
  0
LINE
  5
180
102
{ACAD_REACTORS
330
22E
330
22F
102
}
330
71
100
AcDbEntity
  8
0
  6
Continuous
 62
     2
100
AcDbLine
 10
51.10319958164769
 20
-94.12421441750973
 30
0.0
 11
51.10319958164769
 21
-93.33894911138614
 31
0.0
  0
LINE
  5
181
102
{ACAD_REACTORS
330
22E
330
22F
102
}
330
71
100
AcDbEntity
  8
0
  6
Continuous
 62
     2
100
AcDbLine
 10
47.718254063019
 20
-93.33894911138663
 30
0.0
 11
51.10319958164769
 21
-93.33894911138614
 31
0.0
  0
LINE
  5
182
102
{ACAD_REACTORS
330
22E
330
22F
102
}
330
71
100
AcDbEntity
  8
0
  6
Continuous
 62
     2
100
AcDbLine
 10
49.0993078420066
 20
-94.12421441750973
 30
0.0
 11
49.0993078420066
 21
-96.39275863519723
 31
0.0
  0
LINE
  5
183
102
{ACAD_REACTORS
330
230
330
231
102
}
330
71
100
AcDbEntity
  8
0
  6
Continuous
 62
     2
100
AcDbLine
 10
26.46982140652739
 20
-94.41387848563272
 30
0.0
 11
26.46982140652739
 21
-93.83202707893764
 31
0.0
  0
LINE
  5
184
102
{ACAD_REACTORS
330
230
330
231
102
}
330
71
100
AcDbEntity
  8
0
  6
Continuous
 62
     2
100
AcDbLine
 10
26.46982140652739
 20
-91.61374387900142
 30
0.0
 11
26.46982140652739
 21
-91.00820859049463
 31
0.0
  0
LINE
  5
185
330
71
100
AcDbEntity
  8
1
  6
Continuous
 62
     6
100
AcDbLine
 10
4.99999999113061
 20
-103.6862586352135
 30
0.0
 11
18.95519546438058
 21
-103.6862586352137
 31
0.0
  0
LINE
  5
186
330
71
100
AcDbEntity
  8
1
  6
Continuous
 62
     6
100
AcDbLine
 10
-45.00000000886962
 20
-103.6862586352135
 30
0.0
 11
-50.04480453561939
 21
-103.6862586352135
 31
0.0
  0
LINE
  5
187
330
71
100
AcDbEntity
  8
1
  6
Continuous
 62
     6
100
AcDbLine
 10
104.9999999911306
 20
-103.6862586352135
 30
0.0
 11
148.4999999911306
 21
-103.6862586352135
 31
0.0
  0
LINE
  5
188
330
71
100
AcDbEntity
  8
1
  6
Continuous
 62
     6
100
AcDbLine
 10
54.99999999113058
 20
-103.6862586352135
 30
0.0
 11
37.1551954643806
 21
-103.6862586352135
 31
0.0
  0
LINE
  5
189
330
71
100
AcDbEntity
  8
1
  6
Continuous
 62
     2
100
AcDbLine
 10
148.4999999911306
 20
-103.6862586352135
 30
0.0
 11
153.4999999911296
 21
-103.6862586352135
 31
0.0
  0
LINE
  5
18A
330
71
100
AcDbEntity
  8
1
  6
Continuous
 62
     2
100
AcDbLine
 10
148.4999999911306
 20
-103.6862586352135
 30
0.0
 11
148.4999999911306
 21
-108.6862586352137
 31
0.0
  0
LINE
  5
18B
330
71
100
AcDbEntity
  8
1
  6
Continuous
 62
     6
100
AcDbLine
 10
18.95519546438058
 20
-86.68625863521353
 30
0.0
 11
55.3551954643805
 21
-86.68625863521353
 31
0.0
  0
LINE
  5
18C
330
71
100
AcDbEntity
  8
1
  6
Continuous
 62
     2
100
AcDbLine
 10
153.4999999911296
 20
-108.6862586352137
 30
0.0
 11
153.4999999911296
 21
-103.6862586352135
 31
0.0
  0
LINE
  5
18D
330
71
100
AcDbEntity
  8
1
  6
Continuous
 62
     2
100
AcDbLine
 10
153.4999999911296
 20
-108.6862586352137
 30
0.0
 11
148.4999999911306
 21
-108.6862586352137
 31
0.0
  0
LINE
  5
18E
330
71
100
AcDbEntity
  8
1
  6
Continuous
 62
     2
100
AcDbLine
 10
148.4999999911306
 20
-108.6862586352137
 30
0.0
 11
104.9999999911306
 21
-108.6862586352137
 31
0.0
  0
LINE
  5
18F
330
71
100
AcDbEntity
  8
1
  6
Continuous
 62
     6
100
AcDbLine
 10
148.4999999911323
 20
-86.68625863521353
 30
0.0
 11
148.4999999911315
 21
-53.68625863521342
 31
0.0
  0
LINE
  5
190
330
71
100
AcDbEntity
  8
1
  6
Continuous
 62
     2
100
AcDbLine
 10
153.4999999911296
 20
101.3137413647865
 30
0.0
 11
4.99999999113061
 21
101.3137413647865
 31
0.0
  0
LINE
  5
191
330
71
100
AcDbEntity
  8
1
  6
Continuous
 62
     6
100
AcDbLine
 10
148.4999999911296
 20
81.31374136478647
 30
0.0
 11
-138.5000000088685
 21
81.31374136478647
 31
0.0
  0
LINE
  5
192
330
71
100
AcDbEntity
  8
1
  6
Continuous
 62
     2
100
AcDbLine
 10
148.4999999911315
 20
-53.68625863521342
 30
0.0
 11
153.4999999911296
 21
-53.68625863521342
 31
0.0
  0
LINE
  5
193
330
71
100
AcDbEntity
  8
1
  6
Continuous
 62
     6
100
AcDbLine
 10
148.4999999911315
 20
-53.68625863521342
 30
0.0
 11
148.499999991131
 21
-3.68625863521362
 31
0.0
  0
LINE
  5
194
330
71
100
AcDbEntity
  8
1
  6
Continuous
 62
     2
100
AcDbLine
 10
153.4999999911296
 20
-53.68625863521342
 30
0.0
 11
153.4999999911296
 21
-3.68625863521362
 31
0.0
  0
LINE
  5
195
330
71
100
AcDbEntity
  8
1
  6
Continuous
 62
     2
100
AcDbLine
 10
148.499999991131
 20
-3.68625863521362
 30
0.0
 11
153.4999999911296
 21
-3.68625863521362
 31
0.0
  0
LINE
  5
196
330
71
100
AcDbEntity
  8
1
  6
Continuous
 62
     6
100
AcDbLine
 10
148.499999991131
 20
-3.68625863521362
 30
0.0
 11
148.4999999911298
 21
46.31374136478647
 31
0.0
  0
LINE
  5
197
330
71
100
AcDbEntity
  8
1
  6
Continuous
 62
     2
100
AcDbLine
 10
153.4999999911296
 20
-3.68625863521362
 30
0.0
 11
153.4999999911296
 21
46.31374136478647
 31
0.0
  0
LINE
  5
198
330
71
100
AcDbEntity
  8
1
  6
Continuous
 62
     2
100
AcDbLine
 10
148.4999999911298
 20
46.31374136478647
 30
0.0
 11
153.4999999911296
 21
46.31374136478647
 31
0.0
  0
LINE
  5
199
330
71
100
AcDbEntity
  8
1
  6
Continuous
 62
     6
100
AcDbLine
 10
148.4999999911298
 20
46.31374136478647
 30
0.0
 11
148.4999999911296
 21
81.31374136478647
 31
0.0
  0
LINE
  5
19A
330
71
100
AcDbEntity
  8
1
  6
Continuous
 62
     2
100
AcDbLine
 10
153.4999999911296
 20
46.31374136478647
 30
0.0
 11
153.4999999911296
 21
101.3137413647865
 31
0.0
  0
LINE
  5
19B
330
71
100
AcDbEntity
  8
1
  6
Continuous
 62
     2
100
AcDbLine
 10
153.4999999911296
 20
-103.6862586352135
 30
0.0
 11
153.4999999911296
 21
-53.68625863521342
 31
0.0
  0
LINE
  5
19C
330
71
100
AcDbEntity
  8
1
  6
Continuous
 62
     2
100
AcDbLine
 10
4.99999999113061
 20
101.3137413647865
 30
0.0
 11
-143.5000000088685
 21
101.3137413647865
 31
0.0
  0
LINE
  5
19D
330
71
100
AcDbEntity
  8
1
  6
Continuous
 62
     2
100
AcDbLine
 10
4.99999999113061
 20
101.3137413647865
 30
0.0
 11
4.99999999113061
 21
92.10504952008515
 31
0.0
  0
LINE
  5
19E
330
71
100
AcDbEntity
  8
1
  6
Continuous
 62
     2
100
AcDbLine
 10
-143.5000000088685
 20
-108.6862586352137
 30
0.0
 11
-138.5000000088675
 21
-108.6862586352137
 31
0.0
  0
LINE
  5
19F
330
71
100
AcDbEntity
  8
1
  6
Continuous
 62
     2
100
AcDbLine
 10
-143.5000000088685
 20
101.3137413647865
 30
0.0
 11
-143.5000000088685
 21
46.31374136478647
 31
0.0
  0
LINE
  5
1A0
330
71
100
AcDbEntity
  8
1
  6
Continuous
 62
     6
100
AcDbLine
 10
-138.5000000088685
 20
81.31374136478647
 30
0.0
 11
-138.5000000088684
 21
46.31374136478647
 31
0.0
  0
LINE
  5
1A1
330
71
100
AcDbEntity
  8
1
  6
Continuous
 62
     2
100
AcDbLine
 10
-143.5000000088685
 20
46.31374136478647
 30
0.0
 11
-138.5000000088684
 21
46.31374136478647
 31
0.0
  0
LINE
  5
1A2
330
71
100
AcDbEntity
  8
1
  6
Continuous
 62
     2
100
AcDbLine
 10
-143.5000000088685
 20
46.31374136478647
 30
0.0
 11
-143.5000000088685
 21
-3.68625863521362
 31
0.0
  0
LINE
  5
1A3
330
71
100
AcDbEntity
  8
1
  6
Continuous
 62
     6
100
AcDbLine
 10
-138.5000000088684
 20
46.31374136478647
 30
0.0
 11
-138.5000000088679
 21
-3.68625863521362
 31
0.0
  0
LINE
  5
1A4
330
71
100
AcDbEntity
  8
1
  6
Continuous
 62
     2
100
AcDbLine
 10
-143.5000000088685
 20
-3.68625863521362
 30
0.0
 11
-138.5000000088679
 21
-3.68625863521362
 31
0.0
  0
LINE
  5
1A5
330
71
100
AcDbEntity
  8
1
  6
Continuous
 62
     2
100
AcDbLine
 10
-143.5000000088685
 20
-3.68625863521362
 30
0.0
 11
-143.5000000088685
 21
-53.68625863521342
 31
0.0
  0
LINE
  5
1A6
330
71
100
AcDbEntity
  8
1
  6
Continuous
 62
     6
100
AcDbLine
 10
-138.5000000088679
 20
-3.68625863521362
 30
0.0
 11
-138.5000000088677
 21
-53.68625863521342
 31
0.0
  0
LINE
  5
1A7
330
71
100
AcDbEntity
  8
1
  6
Continuous
 62
     2
100
AcDbLine
 10
-143.5000000088685
 20
-53.68625863521342
 30
0.0
 11
-138.5000000088677
 21
-53.68625863521342
 31
0.0
  0
LINE
  5
1A8
330
71
100
AcDbEntity
  8
1
  6
Continuous
 62
     2
100
AcDbLine
 10
-143.5000000088685
 20
-53.68625863521342
 30
0.0
 11
-143.5000000088685
 21
-103.6862586352135
 31
0.0
  0
LINE
  5
1A9
330
71
100
AcDbEntity
  8
1
  6
Continuous
 62
     6
100
AcDbLine
 10
-138.5000000088677
 20
-53.68625863521342
 30
0.0
 11
-138.5000000088675
 21
-103.6862586352135
 31
0.0
  0
LINE
  5
1AA
330
71
100
AcDbEntity
  8
1
  6
Continuous
 62
     2
100
AcDbLine
 10
-95.00000000886939
 20
-108.6862586352137
 30
0.0
 11
-95.00000000886939
 21
-103.6862586352135
 31
0.0
  0
LINE
  5
1AB
330
71
100
AcDbEntity
  8
1
  6
Continuous
 62
     2
100
AcDbLine
 10
-95.00000000886939
 20
-108.6862586352137
 30
0.0
 11
-45.00000000886962
 21
-108.6862586352137
 31
0.0
  0
LINE
  5
1AC
330
71
100
AcDbEntity
  8
1
  6
Continuous
 62
     2
100
AcDbLine
 10
-45.00000000886962
 20
-108.6862586352137
 30
0.0
 11
-45.00000000886962
 21
-103.6862586352135
 31
0.0
  0
LINE
  5
1AD
330
71
100
AcDbEntity
  8
1
  6
Continuous
 62
     2
100
AcDbLine
 10
-45.00000000886962
 20
-108.6862586352137
 30
0.0
 11
4.99999999113061
 21
-108.6862586352137
 31
0.0
  0
LINE
  5
1AE
330
71
100
AcDbEntity
  8
1
  6
Continuous
 62
     2
100
AcDbLine
 10
4.99999999113061
 20
-108.6862586352137
 30
0.0
 11
4.99999999113061
 21
-103.6862586352135
 31
0.0
  0
LINE
  5
1AF
330
71
100
AcDbEntity
  8
1
  6
Continuous
 62
     2
100
AcDbLine
 10
4.99999999113061
 20
-108.6862586352137
 30
0.0
 11
54.99999999113058
 21
-108.6862586352137
 31
0.0
  0
LINE
  5
1B0
330
71
100
AcDbEntity
  8
1
  6
Continuous
 62
     2
100
AcDbLine
 10
54.99999999113058
 20
-108.6862586352137
 30
0.0
 11
54.99999999113058
 21
-103.6862586352135
 31
0.0
  0
LINE
  5
1B1
330
71
100
AcDbEntity
  8
1
  6
Continuous
 62
     2
100
AcDbLine
 10
104.9999999911306
 20
-108.6862586352137
 30
0.0
 11
104.9999999911306
 21
-103.6862586352135
 31
0.0
  0
LINE
  5
1B2
330
71
100
AcDbEntity
  8
1
  6
Continuous
 62
     2
100
AcDbLine
 10
104.9999999911306
 20
-108.6862586352137
 30
0.0
 11
54.99999999113058
 21
-108.6862586352137
 31
0.0
  0
LINE
  5
1B3
330
71
100
AcDbEntity
  8
1
  6
Continuous
 62
     2
100
AcDbLine
 10
-138.5000000088675
 20
-103.6862586352135
 30
0.0
 11
-138.5000000088675
 21
-108.6862586352137
 31
0.0
  0
LINE
  5
1B4
330
71
100
AcDbEntity
  8
1
  6
Continuous
 62
     2
100
AcDbLine
 10
-138.5000000088675
 20
-108.6862586352137
 30
0.0
 11
-95.00000000886939
 21
-108.6862586352137
 31
0.0
  0
LINE
  5
1B5
330
71
100
AcDbEntity
  8
1
  6
Continuous
 62
     2
100
AcDbLine
 10
-138.5000000088675
 20
-103.6862586352135
 30
0.0
 11
-143.5000000088685
 21
-103.6862586352135
 31
0.0
  0
LINE
  5
1B6
330
71
100
AcDbEntity
  8
1
  6
Continuous
 62
     2
100
AcDbLine
 10
-143.5000000088685
 20
-103.6862586352135
 30
0.0
 11
-143.5000000088685
 21
-108.6862586352137
 31
0.0
  0
LINE
  5
1B7
330
71
100
AcDbEntity
  8
1
  6
Continuous
 62
     6
100
AcDbLine
 10
148.4999999911306
 20
-103.6862586352135
 30
0.0
 11
148.4999999911319
 21
-95.18625863521353
 31
0.0
  0
LINE
  5
1B8
330
71
100
AcDbEntity
  8
1
  6
Continuous
 62
     6
100
AcDbLine
 10
55.3551954643805
 20
-103.6862586352137
 30
0.0
 11
104.9999999911306
 21
-103.6862586352135
 31
0.0
  0
LINE
  5
1B9
330
71
100
AcDbEntity
  8
1
  6
Continuous
 62
     6
100
AcDbLine
 10
-97.30000000886963
 20
-103.6862586352137
 30
0.0
 11
-95.00000000886939
 21
-103.6862586352135
 31
0.0
  0
LINE
  5
1BA
330
71
100
AcDbEntity
  8
1
  6
Continuous
 62
     6
100
AcDbLine
 10
4.99999999113061
 20
-103.6862586352135
 30
0.0
 11
-45.00000000886962
 21
-103.6862586352135
 31
0.0
  0
LINE
  5
1BB
330
71
100
AcDbEntity
  8
1
  6
Continuous
 62
     7
100
AcDbLine
 10
18.95519546438058
 20
-86.68625863521353
 30
0.0
 11
18.95519546438058
 21
-99.43625863521365
 31
0.0
  0
LINE
  5
1BC
330
71
100
AcDbEntity
  8
1
  6
Continuous
 62
     7
100
AcDbLine
 10
55.3551954643805
 20
-86.68625863521353
 30
0.0
 11
55.3551954643805
 21
-99.43625863521353
 31
0.0
  0
LINE
  5
1BD
330
71
100
AcDbEntity
  8
1
  6
Continuous
 62
     6
100
AcDbLine
 10
-97.30000000886963
 20
-103.6862586352137
 30
0.0
 11
-103.5000000088676
 21
-103.6862586352135
 31
0.0
  0
LINE
  5
1BE
330
71
100
AcDbEntity
  8
1
  6
Continuous
 62
     6
100
AcDbLine
 10
55.3551954643805
 20
-103.6862586352137
 30
0.0
 11
54.99999999113058
 21
-103.6862586352135
 31
0.0
  0
LINE
  5
1BF
330
71
100
AcDbEntity
  8
1
  6
Continuous
 62
     6
100
AcDbLine
 10
148.4999999911323
 20
-86.68625863521353
 30
0.0
 11
148.4999999911319
 21
-95.18625863521353
 31
0.0
  0
LINE
  5
1C0
330
71
100
AcDbEntity
  8
1
  6
Continuous
 62
     6
100
AcDbLine
 10
-103.5000000088676
 20
-103.6862586352135
 30
0.0
 11
-138.5000000088675
 21
-103.6862586352135
 31
0.0
  0
LINE
  5
1C1
330
71
100
AcDbEntity
  8
1
  6
Continuous
 62
     2
100
AcDbLine
 10
23.19185035094318
 20
-81.31125863521362
 30
0.0
 11
28.19185035094318
 21
-80.06125863521362
 31
0.0
  0
LINE
  5
1C2
330
71
100
AcDbEntity
  8
1
  6
Continuous
 62
     2
100
AcDbLine
 10
23.19185035094318
 20
-83.81125863521362
 30
0.0
 11
23.19185035094318
 21
-81.31125863521362
 31
0.0
  0
LINE
  5
1C3
330
71
100
AcDbEntity
  8
1
  6
Continuous
 62
     2
100
AcDbLine
 10
28.19185035094318
 20
-85.06125863521362
 30
0.0
 11
23.19185035094318
 21
-83.81125863521362
 31
0.0
  0
LINE
  5
1C4
330
71
100
AcDbEntity
  8
1
  6
Continuous
 62
     2
100
AcDbLine
 10
28.19185035094318
 20
-80.06125863521362
 30
0.0
 11
28.19185035094318
 21
-85.06125863521362
 31
0.0
  0
LINE
  5
1C5
330
71
100
AcDbEntity
  8
1
  6
Continuous
 62
     7
100
AcDbLine
 10
18.95519546438058
 20
-99.43625863521365
 30
0.0
 11
37.1551954643806
 21
-99.43625863521353
 31
0.0
  0
LINE
  5
1C6
330
71
100
AcDbEntity
  8
1
  6
Continuous
 62
     7
100
AcDbLine
 10
18.95519546438058
 20
-99.43625863521365
 30
0.0
 11
18.95519546438058
 21
-103.6862586352137
 31
0.0
  0
LINE
  5
1C7
330
71
100
AcDbEntity
  8
1
  6
Continuous
 62
     7
100
AcDbLine
 10
55.3551954643805
 20
-99.43625863521353
 30
0.0
 11
55.3551954643805
 21
-103.6862586352137
 31
0.0
  0
LINE
  5
1C8
330
71
100
AcDbEntity
  8
1
  6
Continuous
 62
     7
100
AcDbLine
 10
37.1551954643806
 20
-99.43625863521353
 30
0.0
 11
37.1551954643806
 21
-103.6862586352135
 31
0.0
  0
LINE
  5
1C9
330
71
100
AcDbEntity
  8
1
  6
Continuous
 62
     6
100
AcDbLine
 10
37.1551954643806
 20
-103.6862586352135
 30
0.0
 11
18.95519546438058
 21
-103.6862586352137
 31
0.0
  0
LINE
  5
1CA
330
71
100
AcDbEntity
  8
1
  6
Continuous
 62
     7
100
AcDbLine
 10
37.1551954643806
 20
-99.43625863521353
 30
0.0
 11
55.3551954643805
 21
-99.43625863521353
 31
0.0
  0
LINE
  5
1CB
330
71
100
AcDbEntity
  8
1
  6
Continuous
 62
     6
100
AcDbLine
 10
18.95519546438058
 20
-78.18625863521353
 30
0.0
 11
148.4999999911323
 21
-78.18625863521353
 31
0.0
  0
ARC
  5
1CC
102
{ACAD_REACTORS
330
234
330
235
102
}
330
71
100
AcDbEntity
  8
0
  6
Continuous
 62
     2
100
AcDbCircle
 10
34.34684346334058
 20
-94.86585387329194
 30
0.0
 40
0.7717997786796947
100
AcDbArc
 50
321.8795802028417
 51
38.12041979715329
  0
ARC
  5
1CD
102
{ACAD_REACTORS
330
234
330
235
102
}
330
71
100
AcDbEntity
  8
0
  6
Continuous
 62
     2
100
AcDbCircle
 10
34.54658349968699
 20
-95.02258505141194
 30
0.0
 40
0.5179085730137354
100
AcDbArc
 50
218.1204197971931
 51
321.8795802028015
  0
ARC
  5
1CE
102
{ACAD_REACTORS
330
234
330
235
102
}
330
71
100
AcDbEntity
  8
0
  6
Continuous
 62
     2
100
AcDbCircle
 10
34.74632353603309
 20
-94.86585387329194
 30
0.0
 40
0.7717997786794633
100
AcDbArc
 50
141.8795802028363
 51
218.1204197971687
  0
ARC
  5
1CF
102
{ACAD_REACTORS
330
234
330
235
102
}
330
71
100
AcDbEntity
  8
0
  6
Continuous
 62
     2
100
AcDbCircle
 10
34.54658349968699
 20
-94.70912269517143
 30
0.0
 40
0.5179085730133054
100
AcDbArc
 50
38.12041979714655
 51
141.8795802028588
  0
ARC
  5
1D0
102
{ACAD_REACTORS
330
22C
330
22D
102
}
330
71
100
AcDbEntity
  8
0
  6
Continuous
 62
     2
100
AcDbCircle
 10
31.4845693641231
 20
-96.27632023870012
 30
0.0
 40
2.227384008973476
100
AcDbArc
 50
58.0690910500408
 51
71.55192388186713
  0
ARC
  5
1D1
102
{ACAD_REACTORS
330
22C
330
22D
102
}
330
71
100
AcDbEntity
  8
0
  6
Continuous
 62
     2
100
AcDbCircle
 10
31.74629706508188
 20
-94.66078244395294
 30
0.0
 40
0.5115800601948807
100
AcDbArc
 50
113.3722778881999
 51
151.4785267423044
  0
ARC
  5
1D2
102
{ACAD_REACTORS
330
22C
330
22D
102
}
330
71
100
AcDbEntity
  8
0
  6
Continuous
 62
     2
100
AcDbCircle
 10
32.12365432316219
 20
-94.86585387329194
 30
0.0
 40
0.9410597353332576
100
AcDbArc
 50
151.478526742267
 51
208.5214732577057
  0
ARC
  5
1D3
102
{ACAD_REACTORS
330
22C
330
22D
102
}
330
71
100
AcDbEntity
  8
0
  6
Continuous
 62
     2
100
AcDbCircle
 10
31.32669648903018
 20
-91.55317292803554
 30
0.0
 40
4.852596863498139
100
AcDbArc
 50
275.158144769625
 51
285.9799912583529
  0
ARC
  5
1D4
102
{ACAD_REACTORS
330
22C
330
22D
102
}
330
71
100
AcDbEntity
  8
0
  6
Continuous
 62
     2
100
AcDbCircle
 10
31.61555258376609
 20
-94.75306351125712
 30
0.0
 40
1.639695123939391
100
AcDbArc
 50
195.0618917770896
 51
275.1581447696396
  0
ARC
  5
1D5
102
{ACAD_REACTORS
330
22C
330
22D
102
}
330
71
100
AcDbEntity
  8
0
  6
Continuous
 62
     2
100
AcDbCircle
 10
31.19642474030329
 20
-94.86585387329194
 30
0.0
 40
1.205656168390951
100
AcDbArc
 50
164.9381082228765
 51
195.0618917770948
  0
ARC
  5
1D6
102
{ACAD_REACTORS
330
22C
330
22D
102
}
330
71
100
AcDbEntity
  8
0
  6
Continuous
 62
     2
100
AcDbCircle
 10
31.61555258376609
 20
-94.97864423532684
 30
0.0
 40
1.639695123940507
100
AcDbArc
 50
84.84185523036223
 51
164.9381082228865
  0
ARC
  5
1D7
102
{ACAD_REACTORS
330
230
330
231
102
}
330
71
100
AcDbEntity
  8
0
  6
Continuous
 62
     2
100
AcDbCircle
 10
26.78553832960418
 20
-93.83202707893764
 30
0.0
 40
0.3157169230765343
100
AcDbArc
 50
115.3740086783524
 51
180.0
  0
ARC
  5
1D8
102
{ACAD_REACTORS
330
230
330
231
102
}
330
71
100
AcDbEntity
  8
0
  6
Continuous
 62
     2
100
AcDbCircle
 10
26.78553832960418
 20
-91.61374387900142
 30
0.0
 40
0.3157169230767884
100
AcDbArc
 50
180.0
 51
244.6259913216475
  0
ARC
  5
1D9
102
{ACAD_REACTORS
330
230
330
231
102
}
330
71
100
AcDbEntity
  8
0
  6
Continuous
 62
     2
100
AcDbCircle
 10
26.7911544649142
 20
-92.71104353806373
 30
0.0
 40
2.018561131933266
100
AcDbArc
 50
269.8110329575858
 51
90.18896704241416
  0
ARC
  5
1DA
102
{ACAD_REACTORS
330
230
330
231
102
}
330
71
100
AcDbEntity
  8
0
  6
Continuous
 62
     2
100
AcDbCircle
 10
26.78553832960418
 20
-94.41387848563272
 30
0.0
 40
0.3157169230767884
100
AcDbArc
 50
180.0
 51
269.8110329574542
  0
ARC
  5
1DB
102
{ACAD_REACTORS
330
22E
330
22F
102
}
330
71
100
AcDbEntity
  8
0
  6
Continuous
 62
     2
100
AcDbCircle
 10
47.84899854433479
 20
-94.66078244395294
 30
0.0
 40
0.5115800601944166
100
AcDbArc
 50
109.337143219486
 51
151.4785267424225
  0
ARC
  5
1DC
102
{ACAD_REACTORS
330
22E
330
22F
102
}
330
71
100
AcDbEntity
  8
0
  6
Continuous
 62
     2
100
AcDbCircle
 10
47.84899854433479
 20
-95.07092530263043
 30
0.0
 40
0.5115800601960215
100
AcDbArc
 50
208.5214732576866
 51
246.6277221118449
  0
ARC
  5
1DD
102
{ACAD_REACTORS
330
22E
330
22F
102
}
330
71
100
AcDbEntity
  8
0
  6
Continuous
 62
     2
100
AcDbCircle
 10
47.29912621955739
 20
-94.86585387329194
 30
0.0
 40
1.205656168392996
100
AcDbArc
 50
164.9381082229027
 51
195.061891777096
  0
ARC
  5
1DE
102
{ACAD_REACTORS
330
22E
330
22F
102
}
330
71
100
AcDbEntity
  8
0
  6
Continuous
 62
     2
100
AcDbCircle
 10
47.718254063019
 20
-94.97864423532684
 30
0.0
 40
1.639695123940214
100
AcDbArc
 50
90.0
 51
164.938108222895
  0
ARC
  5
1DF
102
{ACAD_REACTORS
330
232
330
233
102
}
330
71
100
AcDbEntity
  8
0
  6
Continuous
 62
     2
100
AcDbCircle
 10
38.29125897031528
 20
-91.50666339711762
 30
0.0
 40
1.526904761905882
100
AcDbArc
 50
90.0
 51
270.0
  0
ARC
  5
1E0
102
{ACAD_REACTORS
330
236
330
237
102
}
330
71
100
AcDbEntity
  8
0
  6
Continuous
 62
     2
100
AcDbCircle
 10
31.5485682250895
 20
-90.99572830532293
 30
0.0
 40
0.3528638246711182
100
AcDbArc
 50
270.0
 51
90.0
  0
ARC
  5
1E1
102
{ACAD_REACTORS
330
230
330
231
102
}
330
71
100
AcDbEntity
  8
0
  6
Continuous
 62
     2
100
AcDbCircle
 10
24.20998964307248
 20
-91.00803111384653
 30
0.0
 40
0.3157169230761951
100
AcDbArc
 50
90.0
 51
180.0
  0
ARC
  5
1E2
102
{ACAD_REACTORS
330
230
330
231
102
}
330
71
100
AcDbEntity
  8
0
  6
Continuous
 62
     2
100
AcDbCircle
 10
26.20840735165709
 20
-92.72288547896923
 30
0.0
 40
0.9118975235576161
100
AcDbArc
 50
115.1944106485284
 51
244.8055893514876
  0
ARC
  5
1E3
102
{ACAD_REACTORS
330
230
330
231
102
}
330
71
100
AcDbEntity
  8
0
  6
Continuous
 62
     2
100
AcDbCircle
 10
25.6858229040821
 20
-93.83371522503202
 30
0.0
 40
0.3157169230766002
100
AcDbArc
 50
0.0
 51
64.80558935146027
  0
ARC
  5
1E4
102
{ACAD_REACTORS
330
230
330
231
102
}
330
71
100
AcDbEntity
  8
0
  6
Continuous
 62
     2
100
AcDbCircle
 10
23.61609496632599
 20
-95.96851401981394
 30
0.0
 40
0.4242446153828077
100
AcDbArc
 50
180.0
 51
270.0
  0
ARC
  5
1E5
102
{ACAD_REACTORS
330
232
330
233
102
}
330
71
100
AcDbEntity
  8
0
  6
Continuous
 62
     2
100
AcDbCircle
 10
38.50753098048048
 20
-91.34993221899714
 30
0.0
 40
0.5179085730135266
100
AcDbArc
 50
38.12041979714334
 51
141.8795802028489
  0
ARC
  5
1E6
102
{ACAD_REACTORS
330
232
330
233
102
}
330
71
100
AcDbEntity
  8
0
  6
Continuous
 62
     2
100
AcDbCircle
 10
38.70727101682678
 20
-91.50666339711762
 30
0.0
 40
0.7717997786796724
100
AcDbArc
 50
141.8795802028404
 51
218.1204197971562
  0
ARC
  5
1E7
102
{ACAD_REACTORS
330
234
330
235
102
}
330
71
100
AcDbEntity
  8
0
  6
Continuous
 62
     2
100
AcDbCircle
 10
34.54658349968699
 20
-94.32727886298863
 30
0.0
 40
2.065479772208509
100
AcDbArc
 50
242.4518518243402
 51
297.5481481756869
  0
ARC
  5
1E8
102
{ACAD_REACTORS
330
234
330
235
102
}
330
71
100
AcDbEntity
  8
0
  6
Continuous
 62
     2
100
AcDbCircle
 10
34.54658349968699
 20
-95.40442888359473
 30
0.0
 40
2.065479772208564
100
AcDbArc
 50
62.45185182430654
 51
117.5481481756664
  0
ARC
  5
1E9
102
{ACAD_REACTORS
330
234
330
235
102
}
330
71
100
AcDbEntity
  8
0
  6
Continuous
 62
     2
100
AcDbCircle
 10
34.26564360785369
 20
-94.86585387329194
 30
0.0
 40
1.45803408365149
100
AcDbArc
 50
117.5481481756624
 51
242.4518518243375
  0
ARC
  5
1EA
102
{ACAD_REACTORS
330
234
330
235
102
}
330
71
100
AcDbEntity
  8
0
  6
Continuous
 62
     2
100
AcDbCircle
 10
34.82752339152029
 20
-94.86585387329194
 30
0.0
 40
1.458034083651999
100
AcDbArc
 50
297.5481481757009
 51
62.4518518242992
  0
ARC
  5
1EB
102
{ACAD_REACTORS
330
232
330
233
102
}
330
71
100
AcDbEntity
  8
0
  6
Continuous
 62
     2
100
AcDbCircle
 10
38.50753098048048
 20
-91.66339457523804
 30
0.0
 40
0.5179085730134372
100
AcDbArc
 50
218.1204197971511
 51
321.8795802028566
  0
ARC
  5
1EC
102
{ACAD_REACTORS
330
232
330
233
102
}
330
71
100
AcDbEntity
  8
0
  6
Continuous
 62
     2
100
AcDbCircle
 10
38.3077909441343
 20
-91.50666339711762
 30
0.0
 40
0.7717997786796373
100
AcDbArc
 50
321.8795802028437
 51
38.12041979715956
  0
ARC
  5
1ED
102
{ACAD_REACTORS
330
230
330
231
102
}
330
71
100
AcDbEntity
  8
0
  6
Continuous
 62
     2
100
AcDbCircle
 10
29.08940705704279
 20
-95.96851401981394
 30
0.0
 40
0.4242446153832873
100
AcDbArc
 50
270.0
 51
0.0
  0
ARC
  5
1EE
102
{ACAD_REACTORS
330
230
330
231
102
}
330
71
100
AcDbEntity
  8
0
  6
Continuous
 62
     2
100
AcDbCircle
 10
29.08940705704279
 20
-90.40400325061373
 30
0.0
 40
0.4242446153838877
100
AcDbArc
 50
0.0
 51
90.0
  0
ARC
  5
1EF
102
{ACAD_REACTORS
330
230
330
231
102
}
330
71
100
AcDbEntity
  8
0
  6
Continuous
 62
     2
100
AcDbCircle
 10
23.61609496632599
 20
-90.40400325061373
 30
0.0
 40
0.4242446153837989
100
AcDbArc
 50
90.0
 51
180.0
  0
ARC
  5
1F0
102
{ACAD_REACTORS
330
230
330
231
102
}
330
71
100
AcDbEntity
  8
0
  6
Continuous
 62
     2
100
AcDbCircle
 10
25.6858229040821
 20
-95.36448615656363
 30
0.0
 40
0.3157169230767067
100
AcDbArc
 50
270.0
 51
0.0
  0
ARC
  5
1F1
102
{ACAD_REACTORS
330
230
330
231
102
}
330
71
100
AcDbEntity
  8
0
  6
Continuous
 62
     2
100
AcDbCircle
 10
25.6858229040821
 20
-91.61205573290704
 30
0.0
 40
0.3157169230761203
100
AcDbArc
 50
295.1944106485397
 51
0.0
  0
ARC
  5
1F2
102
{ACAD_REACTORS
330
230
330
231
102
}
330
71
100
AcDbEntity
  8
0
  6
Continuous
 62
     2
100
AcDbCircle
 10
25.6858229040821
 20
-91.00803111384653
 30
0.0
 40
0.3157169230766002
100
AcDbArc
 50
0.0
 51
90.0
  0
ARC
  5
1F3
102
{ACAD_REACTORS
330
230
330
231
102
}
330
71
100
AcDbEntity
  8
0
  6
Continuous
 62
     2
100
AcDbCircle
 10
24.20998964307248
 20
-95.36448615656363
 30
0.0
 40
0.3157169230756907
100
AcDbArc
 50
180.0
 51
270.0
  0
ARC
  5
1F4
102
{ACAD_REACTORS
330
236
330
237
102
}
330
71
100
AcDbEntity
  8
0
  6
Continuous
 62
     2
100
AcDbCircle
 10
31.99004075132788
 20
-91.03512427654542
 30
0.0
 40
1.055365641333708
100
AcDbArc
 50
270.0
 51
90.0
  0
ARC
  5
1F5
102
{ACAD_REACTORS
330
22E
330
22F
102
}
330
71
100
AcDbEntity
  8
0
  6
Continuous
 62
     2
100
AcDbCircle
 10
47.718254063019
 20
-94.75306351125712
 30
0.0
 40
1.639695123940448
100
AcDbArc
 50
195.0618917771012
 51
275.1581447696762
  0
ARC
  5
1F6
102
{ACAD_REACTORS
330
22E
330
22F
102
}
330
71
100
AcDbEntity
  8
0
  6
Continuous
 62
     2
100
AcDbCircle
 10
47.42939796828318
 20
-91.55317292803554
 30
0.0
 40
4.852596863498825
100
AcDbArc
 50
275.1581447696364
 51
285.9799912583387
  0
ARC
  5
1F7
102
{ACAD_REACTORS
330
22E
330
22F
102
}
330
71
100
AcDbEntity
  8
0
  6
Continuous
 62
     2
100
AcDbCircle
 10
47.58727084337599
 20
-93.45538750788384
 30
0.0
 40
2.227384008972746
100
AcDbArc
 50
288.4480761181335
 51
301.9309089499397
  0
ARC
  5
1F8
102
{ACAD_REACTORS
330
22E
330
22F
102
}
330
71
100
AcDbEntity
  8
0
  6
Continuous
 62
     2
100
AcDbCircle
 10
48.00543857703789
 20
-94.70893328392043
 30
0.0
 40
0.9059297849852801
100
AcDbArc
 50
246.6277221118183
 51
288.4480761180817
  0
ARC
  5
1F9
102
{ACAD_REACTORS
330
22E
330
22F
102
}
330
71
100
AcDbEntity
  8
0
  6
Continuous
 62
     2
100
AcDbCircle
 10
48.22635580241618
 20
-94.86585387329194
 30
0.0
 40
0.9410597353348924
100
AcDbArc
 50
151.4785267423624
 51
208.5214732576695
  0
ARC
  5
1FA
102
{ACAD_REACTORS
330
22E
330
22F
102
}
330
71
100
AcDbEntity
  8
0
  6
Continuous
 62
     2
100
AcDbCircle
 10
47.99566854243849
 20
-95.07873742433583
 30
0.0
 40
0.9545230068260935
100
AcDbArc
 50
90.0
 51
109.337143219432
  0
ARC
  5
1FB
102
{ACAD_REACTORS
330
230
330
231
102
}
330
71
100
AcDbEntity
  8
0
  6
Continuous
 62
     2
100
AcDbCircle
 10
26.78553832960418
 20
-91.00820859049463
 30
0.0
 40
0.3157169230760711
100
AcDbArc
 50
90.18896704254594
 51
180.0
  0
ARC
  5
1FC
102
{ACAD_REACTORS
330
230
330
231
102
}
330
71
100
AcDbEntity
  8
0
  6
Continuous
 62
     2
100
AcDbCircle
 10
26.2594956315163
 20
-92.72288547896923
 30
0.0
 40
0.9118481501444574
100
AcDbArc
 50
295.3740086781763
 51
64.62599132180767
  0
ARC
  5
1FD
102
{ACAD_REACTORS
330
22C
330
22D
102
}
330
71
100
AcDbEntity
  8
0
  6
Continuous
 62
     2
100
AcDbCircle
 10
31.4845693641231
 20
-93.45538750788324
 30
0.0
 40
2.227384008972738
100
AcDbArc
 50
288.4480761181329
 51
301.9309089499592
  0
ARC
  5
1FE
102
{ACAD_REACTORS
330
22C
330
22D
102
}
330
71
100
AcDbEntity
  8
0
  6
Continuous
 62
     2
100
AcDbCircle
 10
31.9027370977839
 20
-94.70893328392043
 30
0.0
 40
0.9059297849849207
100
AcDbArc
 50
246.6277221118708
 51
288.4480761181584
  0
ARC
  5
1FF
102
{ACAD_REACTORS
330
22C
330
22D
102
}
330
71
100
AcDbEntity
  8
0
  6
Continuous
 62
     2
100
AcDbCircle
 10
31.74629706508188
 20
-95.07092530263043
 30
0.0
 40
0.5115800601948034
100
AcDbArc
 50
208.5214732576956
 51
246.6277221118266
  0
ARC
  5
200
102
{ACAD_REACTORS
330
22C
330
22D
102
}
330
71
100
AcDbEntity
  8
0
  6
Continuous
 62
     2
100
AcDbCircle
 10
31.9027370977839
 20
-95.02277446266353
 30
0.0
 40
0.9059297849853228
100
AcDbArc
 50
71.55192388185348
 51
113.3722778881292
  0
ARC
  5
201
102
{ACAD_REACTORS
330
22C
330
22D
102
}
330
71
100
AcDbEntity
  8
0
  6
Continuous
 62
     2
100
AcDbCircle
 10
31.32669648903018
 20
-98.17853481854783
 30
0.0
 40
4.852596863498068
100
AcDbArc
 50
74.02000874164743
 51
84.84185523037497
  0
CIRCLE
  5
202
102
{ACAD_REACTORS
330
230
330
231
102
}
330
71
100
AcDbEntity
  8
0
  6
Continuous
 62
     2
100
AcDbCircle
 10
26.2356806168435
 20
-92.72288547896923
 30
0.0
 40
0.4709789327785003
  0
CIRCLE
  5
203
330
71
100
AcDbEntity
  8
1
  6
Continuous
 62
     2
100
AcDbCircle
 10
31.69185035094318
 20
-82.56125863521362
 30
0.0
 40
1.249999999999918
  0
CIRCLE
  5
204
330
71
100
AcDbEntity
  8
1
  6
Continuous
 62
     2
100
AcDbCircle
 10
31.69185035094318
 20
-82.56125863521362
 30
0.0
 40
2.499999999999996
  0
TEXT
  5
205
330
71
100
AcDbEntity
  8
1
 62
     7
100
AcDbText
 10
74.32874318639438
 20
-85.38625863521364
 30
0.0
 40
2.5
  1
/
 41
0.9
  7
CONVERTER_11
100
AcDbText
  0
TEXT
  5
207
330
71
100
AcDbEntity
  8
1
 62
     7
100
AcDbText
 10
76.48510768343638
 20
-85.38625863521364
 30
0.0
 40
2.5
  1
00
 41
0.81
  7
CONVERTER_12
100
AcDbText
  0
TEXT
  5
208
330
71
100
AcDbEntity
  8
1
 62
     3
100
AcDbText
 10
114.0815917094535
 20
-85.38625863521364
 30
0.0
 40
2.5
  1
20.03.2018
 41
0.81
  7
CONVERTER_12
100
AcDbText
  0
MTEXT
  5
209
330
71
100
AcDbEntity
  8
1
 62
     2
100
AcDbMText
 10
114.0815917094535
 20
-79.18625863521362
 30
0.0
 40
1.8
 41
0.0
 71
     1
 72
     1
  1
date
  7
CONVERTER_11
 73
     1
 44
1.32052821128451
  0
MTEXT
  5
20A
330
71
100
AcDbEntity
  8
1
 62
     2
100
AcDbMText
 10
84.25519546438059
 20
-87.68625863521362
 30
0.0
 40
1.8
 41
0.0
 71
     1
 72
     1
  1
document-type
  7
CONVERTER_11
 73
     1
 44
1.20048019207683
  0
TEXT
  5
20B
330
71
100
AcDbEntity
  8
1
 62
     3
100
AcDbText
 10
84.25519546438059
 20
-93.88625863521364
 30
0.0
 40
2.5
  1
TECDOC 2D_Productdrawing
 41
0.81
  7
CONVERTER_12
100
AcDbText
  0
MTEXT
  5
20D
330
71
100
AcDbEntity
  8
1
 62
     2
100
AcDbMText
 10
56.45519546438058
 20
-79.18625863521353
 30
0.0
 40
1.8
 41
0.0
 71
     1
 72
     1
  1
document-No. / RI
  7
CONVERTER_13
 73
     1
 44
1.32052821128451
  0
TEXT
  5
20E
330
71
100
AcDbEntity
  8
1
 62
     7
100
AcDbText
 10
56.45519546438058
 20
-85.38625863521364
 30
0.0
 40
2.5
  1
40211804
 41
0.81
  7
CONVERTER_12
100
AcDbText
  0
MTEXT
  5
210
330
71
100
AcDbEntity
  8
1
 62
     3
100
AcDbMText
 10
144.0407958502929
 20
-85.38625863521344
 30
0.0
 40
2.5
 41
0.0
 71
     8
 72
     1
  1
1:1
  7
CONVERTER_14
 73
     1
 44
1.32052821128451
  0
MTEXT
  5
211
330
71
100
AcDbEntity
  8
1
 62
     2
100
AcDbMText
 10
140.6815917094533
 20
-79.18625863521353
 30
0.0
 40
1.8
 41
0.0
 71
     1
 72
     1
  1
scale
  7
CONVERTER_11
 73
     1
 44
1.20048019207683
  0
MTEXT
  5
212
330
71
100
AcDbEntity
  8
1
 62
     2
100
AcDbMText
 10
56.45519546438058
 20
-87.68625863521353
 30
0.0
 40
1.8
 41
0.0
 71
     1
 72
     1
  1
ident.-No.
  7
CONVERTER_11
 73
     1
 44
1.20048019207683
  0
TEXT
  5
213
330
71
100
AcDbEntity
  8
1
 62
     7
100
AcDbText
 10
56.8551954643803
 20
-93.88625863521364
 30
0.0
 40
2.5
  1
3209112
 41
0.81
  7
CONVERTER_12
100
AcDbText
  0
MTEXT
  5
214
330
71
100
AcDbEntity
  8
1
 62
     2
100
AcDbMText
 10
-15.48281926066693
 20
-90.93625863521362
 30
0.0
 40
2.0
 41
0.0
 71
     5
 72
     1
  1
General Information\P- Simplified representation\P- Document excluded from change process\P- Linear dimensions [mm]
  7
CONVERTER_11
 73
     1
 44
1.20048019207683
  0
MTEXT
  5
215
330
71
100
AcDbEntity
  8
1
 62
     7
100
AcDbMText
 10
150.9999999911296
 20
-28.68625863521163
 30
0.0
 40
3.5
 41
0.0
 71
     5
 72
     1
  1
C
  7
CONVERTER_11
 73
     1
 44
1.20048019207683
  0
MTEXT
  5
216
330
71
100
AcDbEntity
  8
1
 62
     7
100
AcDbMText
 10
150.9999999911296
 20
73.81374136478647
 30
0.0
 40
3.5
 41
0.0
 71
     5
 72
     1
  1
A
  7
CONVERTER_11
 73
     1
 44
1.20048019207683
  0
MTEXT
  5
217
330
71
100
AcDbEntity
  8
1
 62
     7
100
AcDbMText
 10
150.9999999911296
 20
21.31374136478837
 30
0.0
 40
3.5
 41
0.0
 71
     5
 72
     1
  1
B
  7
CONVERTER_11
 73
     1
 44
1.20048019207683
  0
MTEXT
  5
218
330
71
100
AcDbEntity
  8
1
 62
     7
100
AcDbMText
 10
150.9999999911296
 20
-81.18625863521353
 30
0.0
 40
3.5
 41
0.0
 71
     5
 72
     1
  1
D
  7
CONVERTER_11
 73
     1
 44
1.20048019207683
  0
MTEXT
  5
219
330
71
100
AcDbEntity
  8
1
 62
     7
100
AcDbMText
 10
-119.250000008869
 20
-106.1862586352137
 30
0.0
 40
3.5
 41
0.0
 71
     5
 72
     1
  1
1
  7
CONVERTER_11
 73
     1
 44
1.20048019207683
  0
MTEXT
  5
21A
330
71
100
AcDbEntity
  8
1
 62
     7
100
AcDbMText
 10
-70.00000000886939
 20
-106.1862586352137
 30
0.0
 40
3.5
 41
0.0
 71
     5
 72
     1
  1
2
  7
CONVERTER_11
 73
     1
 44
1.20048019207683
  0
MTEXT
  5
21B
330
71
100
AcDbEntity
  8
1
 62
     7
100
AcDbMText
 10
-20.00000000886939
 20
-106.1862586352137
 30
0.0
 40
3.5
 41
0.0
 71
     5
 72
     1
  1
3
  7
CONVERTER_11
 73
     1
 44
1.20048019207683
  0
MTEXT
  5
21C
330
71
100
AcDbEntity
  8
1
 62
     7
100
AcDbMText
 10
29.99999999113049
 20
-106.1862586352137
 30
0.0
 40
3.5
 41
0.0
 71
     5
 72
     1
  1
4
  7
CONVERTER_11
 73
     1
 44
1.20048019207683
  0
MTEXT
  5
21D
330
71
100
AcDbEntity
  8
1
 62
     7
100
AcDbMText
 10
79.99999999113058
 20
-106.1862586352137
 30
0.0
 40
3.5
 41
0.0
 71
     5
 72
     1
  1
5
  7
CONVERTER_11
 73
     1
 44
1.20048019207683
  0
MTEXT
  5
21E
330
71
100
AcDbEntity
  8
1
 62
     7
100
AcDbMText
 10
129.2499999911298
 20
-106.1862586352137
 30
0.0
 40
3.5
 41
0.0
 71
     5
 72
     1
  1
6
  7
CONVERTER_11
 73
     1
 44
1.20048019207683
  0
MTEXT
  5
21F
330
71
100
AcDbEntity
  8
1
 62
     7
100
AcDbMText
 10
-141.0000000088685
 20
73.81374136478647
 30
0.0
 40
3.5
 41
0.0
 71
     5
 72
     1
  1
A
  7
CONVERTER_11
 73
     1
 44
1.20048019207683
  0
MTEXT
  5
220
330
71
100
AcDbEntity
  8
1
 62
     7
100
AcDbMText
 10
-141.0000000088685
 20
21.31374136478647
 30
0.0
 40
3.5
 41
0.0
 71
     5
 72
     1
  1
B
  7
CONVERTER_11
 73
     1
 44
1.20048019207683
  0
MTEXT
  5
221
330
71
100
AcDbEntity
  8
1
 62
     7
100
AcDbMText
 10
-141.0000000088685
 20
-28.68625863521353
 30
0.0
 40
3.5
 41
0.0
 71
     5
 72
     1
  1
C
  7
CONVERTER_11
 73
     1
 44
1.20048019207683
  0
MTEXT
  5
222
330
71
100
AcDbEntity
  8
1
 62
     7
100
AcDbMText
 10
-141.0000000088685
 20
-81.18625863521353
 30
0.0
 40
3.5
 41
0.0
 71
     5
 72
     1
  1
D
  7
CONVERTER_11
 73
     1
 44
1.20048019207683
  0
MTEXT
  5
223
330
71
100
AcDbEntity
  8
1
 62
     3
100
AcDbMText
 10
45.15519546438048
 20
-82.56125863521353
 30
0.0
 40
2.5
 41
0.0
 71
     5
 72
     1
  1
DIN A4
  7
CONVERTER_11
 73
     1
 44
1.20048019207683
  0
MTEXT
  5
224
330
71
100
AcDbEntity
  8
1
 62
     2
100
AcDbMText
 10
56.3551954643805
 20
-96.18625863521353
 30
0.0
 40
1.8
 41
0.0
 71
     1
 72
     1
  1
description
  7
CONVERTER_11
 73
     1
 44
1.20048019207683
  0
MTEXT
  5
225
330
71
100
AcDbEntity
  8
1
 62
     7
100
AcDbMText
 10
101.9275977277561
 20
-100.4362586352133
 30
0.0
 40
3.0
 41
0.0
 71
     5
 72
     1
  1
D-STIO 2,5/3
  7
CONVERTER_12
 73
     1
 44
1.20048019207683
  0
TEXT
  5
226
330
71
100
AcDbEntity
  8
1
 62
     2
100
AcDbText
 10
43.39050427419409
 20
-102.4362586352137
 30
0.0
 40
1.8
  1
1
 41
0.9
  7
CONVERTER_11
100
AcDbText
  0
TEXT
  5
227
330
71
100
AcDbEntity
  8
1
 62
     2
100
AcDbText
 10
28.60146043472258
 20
-102.4855072890155
 30
0.0
 40
1.8
  1
1
 41
0.9
  7
CONVERTER_11
100
AcDbText
  0
TEXT
  5
228
330
71
100
AcDbEntity
  8
1
 62
     2
100
AcDbText
 10
19.95519546438058
 20
-102.4452758502052
 30
0.0
 40
1.8
  1
page
 41
0.9
  7
CONVERTER_11
100
AcDbText
  0
TEXT
  5
229
330
71
100
AcDbEntity
  8
1
 62
     2
100
AcDbText
 10
38.1551954643804
 20
-102.4452758502052
 30
0.0
 40
1.8
  1
of
 41
0.9
  7
CONVERTER_11
100
AcDbText
  0
MTEXT
  5
22A
330
71
100
AcDbEntity
  8
1
 62
     3
100
AcDbMText
 10
44.35817761599049
 20
83.10504952008526
 30
0.0
 40
1.8
 41
0.0
 71
     7
 72
     1
  3
Transfer or duplication of this document as well as the utilisation or\Pcommunication of its content are not permitted unless express consent\Pis granted. Violations give rise to claims for damages. All rights reserved\Pin case of patent, utility mo
  1
del or design patent registrations.
  7
CONVERTER_11
 73
     1
 44
0.99639855942377
  0
MTEXT
  5
22B
330
71
100
AcDbEntity
  8
1
 62
     3
100
AcDbMText
 10
-138.4949322227976
 20
83.10504952008526
 30
0.0
 40
1.8
 41
0.0
 71
     7
 72
     1
  3
Weitergabe sowie Vervielf\U+00e4ltigung dieses Dokuments, Verwertung und \PMitteilung seines Inhalts sind verboten, soweit nicht ausdr\U+00fccklich gestattet. \PZuwiderhandlungen verpflichten zu Schadenersatz. Alle Rechte f\U+00fcr den Fall\Pder Pat
  1
ent-, Gebrauchsmuster- oder Designeintragung vorbehalten.
  7
CONVERTER_11
 73
     1
 44
0.99639855942377
  0
HATCH
  5
22C
330
71
100
AcDbEntity
  8
1
  6
Continuous
 62
     2
100
AcDbHatch
 10
0.0
 20
0.0
 30
0.0
210
0.0
220
0.0
230
1.0
  2
_USER
 70
     0
 71
     1
 91
        1
 92
        1
 93
       14
 72
     2
 10
31.19642474030329
 20
-94.86585387329194
 40
1.205656168390951
 50
164.9381082228765
 51
195.0618917770948
 73
     1
 72
     2
 10
31.61555258376609
 20
-94.75306351125712
 40
1.639695123939391
 50
195.0618917770896
 51
275.1581447696396
 73
     1
 72
     2
 10
31.32669648903018
 20
-91.55317292803554
 40
4.852596863498139
 50
275.158144769625
 51
285.9799912583529
 73
     1
 72
     1
 10
32.66262440614798
 20
-96.21825523383635
 11
32.66262440614798
 21
-95.34573822703314
 72
     2
 10
31.4845693641231
 20
-93.45538750788324
 40
2.227384008972738
 50
58.0690910500408
 51
71.55192388186713
 73
     0
 72
     2
 10
31.9027370977839
 20
-94.70893328392043
 40
0.9059297849849207
 50
71.55192388184153
 51
113.3722778881292
 73
     0
 72
     2
 10
31.74629706508188
 20
-95.07092530263043
 40
0.5115800601948034
 50
113.3722778881733
 51
151.4785267423044
 73
     0
 72
     2
 10
32.12365432316219
 20
-94.86585387329194
 40
0.9410597353332576
 50
151.4785267422943
 51
208.521473257733
 73
     0
 72
     2
 10
31.74629706508188
 20
-94.66078244395294
 40
0.5115800601948807
 50
208.5214732576956
 51
246.6277221118002
 73
     0
 72
     2
 10
31.9027370977839
 20
-95.02277446266353
 40
0.9059297849853228
 50
246.6277221118708
 51
288.4480761181465
 73
     0
 72
     2
 10
31.4845693641231
 20
-96.27632023870012
 40
2.227384008973476
 50
288.4480761181329
 51
301.9309089499592
 73
     0
 72
     1
 10
32.66262440614798
 20
-94.38596951955023
 11
32.66262440614798
 21
-93.51345251274694
 72
     2
 10
31.32669648903018
 20
-98.17853481854783
 40
4.852596863498068
 50
74.02000874164743
 51
84.84185523037497
 73
     1
 72
     2
 10
31.61555258376609
 20
-94.97864423532684
 40
1.639695123940507
 50
84.84185523036223
 51
164.9381082228865
 73
     1
 97
       14
330
201
330
11A
330
1D0
330
200
330
1D1
330
1D2
330
1FF
330
1FE
330
1FD
330
11B
330
1D3
330
1D4
330
1D5
330
1D6
 75
     1
 76
     0
 52
45.0
 41
0.1
 77
     0
 78
     1
 53
45.0
 43
0.0
 44
0.0
 45
-0.0707106781186548
 46
0.0707106781186548
 79
     0
 98
        1
 10
0.0
 20
0.0
  0
HATCH
  5
22D
330
71
100
AcDbEntity
  8
1
  6
Continuous
 62
     2
100
AcDbHatch
 10
0.0
 20
0.0
 30
0.0
210
0.0
220
0.0
230
1.0
  2
_USER
 70
     0
 71
     1
 91
        1
 92
        1
 93
       14
 72
     2
 10
31.19642474030329
 20
-94.86585387329194
 40
1.205656168390951
 50
164.9381082228765
 51
195.0618917770948
 73
     1
 72
     2
 10
31.61555258376609
 20
-94.75306351125712
 40
1.639695123939391
 50
195.0618917770896
 51
275.1581447696396
 73
     1
 72
     2
 10
31.32669648903018
 20
-91.55317292803554
 40
4.852596863498139
 50
275.158144769625
 51
285.9799912583529
 73
     1
 72
     1
 10
32.66262440614798
 20
-96.21825523383635
 11
32.66262440614798
 21
-95.34573822703314
 72
     2
 10
31.4845693641231
 20
-93.45538750788324
 40
2.227384008972738
 50
58.0690910500408
 51
71.55192388186713
 73
     0
 72
     2
 10
31.9027370977839
 20
-94.70893328392043
 40
0.9059297849849207
 50
71.55192388184153
 51
113.3722778881292
 73
     0
 72
     2
 10
31.74629706508188
 20
-95.07092530263043
 40
0.5115800601948034
 50
113.3722778881733
 51
151.4785267423044
 73
     0
 72
     2
 10
32.12365432316219
 20
-94.86585387329194
 40
0.9410597353332576
 50
151.4785267422943
 51
208.521473257733
 73
     0
 72
     2
 10
31.74629706508188
 20
-94.66078244395294
 40
0.5115800601948807
 50
208.5214732576956
 51
246.6277221118002
 73
     0
 72
     2
 10
31.9027370977839
 20
-95.02277446266353
 40
0.9059297849853228
 50
246.6277221118708
 51
288.4480761181465
 73
     0
 72
     2
 10
31.4845693641231
 20
-96.27632023870012
 40
2.227384008973476
 50
288.4480761181329
 51
301.9309089499592
 73
     0
 72
     1
 10
32.66262440614798
 20
-94.38596951955023
 11
32.66262440614798
 21
-93.51345251274694
 72
     2
 10
31.32669648903018
 20
-98.17853481854783
 40
4.852596863498068
 50
74.02000874164743
 51
84.84185523037497
 73
     1
 72
     2
 10
31.61555258376609
 20
-94.97864423532684
 40
1.639695123940507
 50
84.84185523036223
 51
164.9381082228865
 73
     1
 97
       14
330
201
330
11A
330
1D0
330
200
330
1D1
330
1D2
330
1FF
330
1FE
330
1FD
330
11B
330
1D3
330
1D4
330
1D5
330
1D6
 75
     1
 76
     0
 52
45.0
 41
0.1
 77
     0
 78
     1
 53
45.0
 43
0.0
 44
0.0
 45
-0.0707106781186548
 46
0.0707106781186548
 79
     0
 98
        1
 10
0.0
 20
0.0
  0
HATCH
  5
22E
330
71
100
AcDbEntity
  8
1
  6
Continuous
 62
     2
100
AcDbHatch
 10
0.0
 20
0.0
 30
0.0
210
0.0
220
0.0
230
1.0
  2
_USER
 70
     0
 71
     1
 91
        1
 92
        1
 93
       18
 72
     2
 10
47.718254063019
 20
-94.97864423532684
 40
1.639695123940214
 50
90.0
 51
164.938108222895
 73
     1
 72
     2
 10
47.29912621955739
 20
-94.86585387329194
 40
1.205656168392996
 50
164.9381082229027
 51
195.061891777096
 73
     1
 72
     2
 10
47.718254063019
 20
-94.75306351125712
 40
1.639695123940448
 50
195.0618917771012
 51
275.1581447696762
 73
     1
 72
     2
 10
47.42939796828318
 20
-91.55317292803554
 40
4.852596863498825
 50
275.1581447696364
 51
285.9799912583387
 73
     1
 72
     1
 10
48.7653258853999
 20
-96.21825523383694
 11
48.7653258853999
 21
-95.34573822703362
 72
     2
 10
47.58727084337599
 20
-93.45538750788384
 40
2.227384008972746
 50
58.06909105006029
 51
71.55192388186651
 73
     0
 72
     2
 10
48.00543857703789
 20
-94.70893328392043
 40
0.9059297849852801
 50
71.55192388191827
 51
113.3722778881817
 73
     0
 72
     2
 10
47.84899854433479
 20
-95.07092530263043
 40
0.5115800601960215
 50
113.3722778881551
 51
151.4785267423134
 73
     0
 72
     2
 10
48.22635580241618
 20
-94.86585387329194
 40
0.9410597353348924
 50
151.4785267423305
 51
208.5214732576376
 73
     0
 72
     2
 10
47.84899854433479
 20
-94.66078244395294
 40
0.5115800601944166
 50
208.5214732575775
 51
250.662856780514
 73
     0
 72
     2
 10
47.99566854243849
 20
-95.07873742433583
 40
0.9545230068260935
 50
250.662856780568
 51
270.0
 73
     0
 72
     1
 10
47.99566854243849
 20
-94.12421441750973
 11
49.0993078420066
 21
-94.12421441750973
 72
     1
 10
49.0993078420066
 20
-94.12421441750973
 11
49.0993078420066
 21
-96.39275863519723
 72
     1
 10
49.0993078420066
 20
-96.39275863519723
 11
50.2921005441743
 21
-96.39275863519723
 72
     1
 10
50.2921005441743
 20
-96.39275863519723
 11
50.2921005441743
 21
-94.12421441750973
 72
     1
 10
50.2921005441743
 20
-94.12421441750973
 11
51.10319958164769
 21
-94.12421441750973
 72
     1
 10
51.10319958164769
 20
-94.12421441750973
 11
51.10319958164769
 21
-93.33894911138614
 72
     1
 10
51.10319958164769
 20
-93.33894911138614
 11
47.718254063019
 21
-93.33894911138663
 97
       18
330
180
330
17F
330
17E
330
17D
330
182
330
11C
330
1FA
330
1DB
330
1F9
330
1DC
330
1F8
330
1F7
330
11D
330
1F6
330
1F5
330
1DD
330
1DE
330
181
 75
     1
 76
     0
 52
45.0
 41
0.1
 77
     0
 78
     1
 53
45.0
 43
0.0
 44
0.0
 45
-0.0707106781186548
 46
0.0707106781186548
 79
     0
 98
        1
 10
0.0
 20
0.0
  0
HATCH
  5
22F
330
71
100
AcDbEntity
  8
1
  6
Continuous
 62
     2
100
AcDbHatch
 10
0.0
 20
0.0
 30
0.0
210
0.0
220
0.0
230
1.0
  2
_USER
 70
     0
 71
     1
 91
        1
 92
        1
 93
       18
 72
     2
 10
47.718254063019
 20
-94.97864423532684
 40
1.639695123940214
 50
90.0
 51
164.938108222895
 73
     1
 72
     2
 10
47.29912621955739
 20
-94.86585387329194
 40
1.205656168392996
 50
164.9381082229027
 51
195.061891777096
 73
     1
 72
     2
 10
47.718254063019
 20
-94.75306351125712
 40
1.639695123940448
 50
195.0618917771012
 51
275.1581447696762
 73
     1
 72
     2
 10
47.42939796828318
 20
-91.55317292803554
 40
4.852596863498825
 50
275.1581447696364
 51
285.9799912583387
 73
     1
 72
     1
 10
48.7653258853999
 20
-96.21825523383694
 11
48.7653258853999
 21
-95.34573822703362
 72
     2
 10
47.58727084337599
 20
-93.45538750788384
 40
2.227384008972746
 50
58.06909105006029
 51
71.55192388186651
 73
     0
 72
     2
 10
48.00543857703789
 20
-94.70893328392043
 40
0.9059297849852801
 50
71.55192388191827
 51
113.3722778881817
 73
     0
 72
     2
 10
47.84899854433479
 20
-95.07092530263043
 40
0.5115800601960215
 50
113.3722778881551
 51
151.4785267423134
 73
     0
 72
     2
 10
48.22635580241618
 20
-94.86585387329194
 40
0.9410597353348924
 50
151.4785267423305
 51
208.5214732576376
 73
     0
 72
     2
 10
47.84899854433479
 20
-94.66078244395294
 40
0.5115800601944166
 50
208.5214732575775
 51
250.662856780514
 73
     0
 72
     2
 10
47.99566854243849
 20
-95.07873742433583
 40
0.9545230068260935
 50
250.662856780568
 51
270.0
 73
     0
 72
     1
 10
47.99566854243849
 20
-94.12421441750973
 11
49.0993078420066
 21
-94.12421441750973
 72
     1
 10
49.0993078420066
 20
-94.12421441750973
 11
49.0993078420066
 21
-96.39275863519723
 72
     1
 10
49.0993078420066
 20
-96.39275863519723
 11
50.2921005441743
 21
-96.39275863519723
 72
     1
 10
50.2921005441743
 20
-96.39275863519723
 11
50.2921005441743
 21
-94.12421441750973
 72
     1
 10
50.2921005441743
 20
-94.12421441750973
 11
51.10319958164769
 21
-94.12421441750973
 72
     1
 10
51.10319958164769
 20
-94.12421441750973
 11
51.10319958164769
 21
-93.33894911138614
 72
     1
 10
51.10319958164769
 20
-93.33894911138614
 11
47.718254063019
 21
-93.33894911138663
 97
       18
330
180
330
17F
330
17E
330
17D
330
182
330
11C
330
1FA
330
1DB
330
1F9
330
1DC
330
1F8
330
1F7
330
11D
330
1F6
330
1F5
330
1DD
330
1DE
330
181
 75
     1
 76
     0
 52
45.0
 41
0.1
 77
     0
 78
     1
 53
45.0
 43
0.0
 44
0.0
 45
-0.0707106781186548
 46
0.0707106781186548
 79
     0
 98
        1
 10
0.0
 20
0.0
  0
HATCH
  5
230
330
71
100
AcDbEntity
  8
1
  6
Continuous
 62
     2
100
AcDbHatch
 10
0.0
 20
0.0
 30
0.0
210
0.0
220
0.0
230
1.0
  2
_USER
 70
     0
 71
     1
 91
        4
 92
        1
 93
        8
 72
     2
 10
23.61609496632599
 20
-90.40400325061373
 40
0.4242446153837989
 50
90.0
 51
180.0
 73
     1
 72
     1
 10
23.19185035094318
 20
-90.40400325061373
 11
23.19185035094318
 21
-95.96851401981394
 72
     2
 10
23.61609496632599
 20
-95.96851401981394
 40
0.4242446153828077
 50
180.0
 51
270.0
 73
     1
 72
     1
 10
23.61609496632599
 20
-96.39275863519723
 11
29.08940705704279
 21
-96.39275863519723
 72
     2
 10
29.08940705704279
 20
-95.96851401981394
 40
0.4242446153832873
 50
270.0
 51
360.0
 73
     1
 72
     1
 10
29.51365167242668
 20
-95.96851401981394
 11
29.51365167242668
 21
-90.40400325061373
 72
     2
 10
29.08940705704279
 20
-90.40400325061373
 40
0.4242446153838877
 50
0.0
 51
90.0
 73
     1
 72
     1
 10
29.08940705704279
 20
-89.97975863522993
 11
23.61609496632599
 21
-89.97975863522993
 97
        8
330
1EE
330
14B
330
1ED
330
14C
330
1E4
330
149
330
1EF
330
14A
 92
       16
 93
        1
 72
     2
 10
26.2356806168435
 20
-92.72288547896923
 40
0.4709789327785003
 50
0.0
 51
360.0
 73
     1
 97
        1
330
202
 92
       16
 93
        8
 72
     2
 10
26.2594956315163
 20
-92.72288547896923
 40
0.9118481501444574
 50
295.3740086781763
 51
424.6259913218076
 73
     1
 72
     2
 10
26.78553832960418
 20
-91.61374387900142
 40
0.3157169230767884
 50
115.3740086783524
 51
180.0
 73
     0
 72
     1
 10
26.46982140652739
 20
-91.61374387900142
 11
26.46982140652739
 21
-91.00820859049463
 72
     2
 10
26.78553832960418
 20
-91.00820859049463
 40
0.3157169230760711
 50
180.0
 51
269.8110329574541
 73
     0
 72
     2
 10
26.7911544649142
 20
-92.71104353806373
 40
2.018561131933266
 50
269.8110329575858
 51
450.1889670424142
 73
     0
 72
     2
 10
26.78553832960418
 20
-94.41387848563272
 40
0.3157169230767884
 50
90.18896704254585
 51
180.0
 73
     0
 72
     1
 10
26.46982140652739
 20
-94.41387848563272
 11
26.46982140652739
 21
-93.83202707893764
 72
     2
 10
26.78553832960418
 20
-93.83202707893764
 40
0.3157169230765343
 50
180.0
 51
244.6259913216475
 73
     0
 97
        8
330
1FC
330
1D8
330
184
330
1FB
330
1D9
330
1DA
330
183
330
1D7
 92
       16
 93
       12
 72
     1
 10
24.20998964307248
 20
-95.68020307964034
 11
25.6858229040821
 21
-95.68020307964034
 72
     2
 10
25.6858229040821
 20
-95.36448615656363
 40
0.3157169230767067
 50
270.0
 51
360.0
 73
     1
 72
     1
 10
26.0015398271587
 20
-95.36448615656363
 11
26.0015398271587
 21
-93.83371522503202
 72
     2
 10
25.6858229040821
 20
-93.83371522503202
 40
0.3157169230766002
 50
0.0
 51
64.80558935146027
 73
     1
 72
     2
 10
26.20840735165709
 20
-92.72288547896923
 40
0.9118975235576161
 50
115.1944106485124
 51
244.8055893514716
 73
     0
 72
     2
 10
25.6858229040821
 20
-91.61205573290704
 40
0.3157169230761203
 50
295.1944106485397
 51
360.0
 73
     1
 72
     1
 10
26.0015398271587
 20
-91.61205573290704
 11
26.0015398271587
 21
-91.00803111384653
 72
     2
 10
25.6858229040821
 20
-91.00803111384653
 40
0.3157169230766002
 50
0.0
 51
90.0
 73
     1
 72
     1
 10
25.6858229040821
 20
-90.69231419077033
 11
24.20998964307248
 21
-90.69231419077033
 72
     2
 10
24.20998964307248
 20
-91.00803111384653
 40
0.3157169230761951
 50
90.0
 51
180.0
 73
     1
 72
     1
 10
23.89427271999679
 20
-91.00803111384653
 11
23.89427271999679
 21
-95.36448615656363
 72
     2
 10
24.20998964307248
 20
-95.36448615656363
 40
0.3157169230756907
 50
180.0
 51
270.0
 73
     1
 97
       12
330
150
330
1E1
330
14F
330
1F2
330
14E
330
1F1
330
1E2
330
1E3
330
14D
330
1F0
330
148
330
1F3
 75
     1
 76
     0
 52
45.0
 41
0.1
 77
     0
 78
     1
 53
45.0
 43
0.0
 44
0.0
 45
-0.0707106781186548
 46
0.0707106781186548
 79
     0
 98
        1
 10
0.0
 20
0.0
  0
HATCH
  5
231
330
71
100
AcDbEntity
  8
1
  6
Continuous
 62
     2
100
AcDbHatch
 10
0.0
 20
0.0
 30
0.0
210
0.0
220
0.0
230
1.0
  2
_USER
 70
     0
 71
     1
 91
        4
 92
        1
 93
        8
 72
     2
 10
23.61609496632599
 20
-90.40400325061373
 40
0.4242446153837989
 50
90.0
 51
180.0
 73
     1
 72
     1
 10
23.19185035094318
 20
-90.40400325061373
 11
23.19185035094318
 21
-95.96851401981394
 72
     2
 10
23.61609496632599
 20
-95.96851401981394
 40
0.4242446153828077
 50
180.0
 51
270.0
 73
     1
 72
     1
 10
23.61609496632599
 20
-96.39275863519723
 11
29.08940705704279
 21
-96.39275863519723
 72
     2
 10
29.08940705704279
 20
-95.96851401981394
 40
0.4242446153832873
 50
270.0
 51
360.0
 73
     1
 72
     1
 10
29.51365167242668
 20
-95.96851401981394
 11
29.51365167242668
 21
-90.40400325061373
 72
     2
 10
29.08940705704279
 20
-90.40400325061373
 40
0.4242446153838877
 50
0.0
 51
90.0
 73
     1
 72
     1
 10
29.08940705704279
 20
-89.97975863522993
 11
23.61609496632599
 21
-89.97975863522993
 97
        8
330
1EE
330
14B
330
1ED
330
14C
330
1E4
330
149
330
1EF
330
14A
 92
       16
 93
        1
 72
     2
 10
26.2356806168435
 20
-92.72288547896923
 40
0.4709789327785003
 50
0.0
 51
360.0
 73
     1
 97
        1
330
202
 92
       16
 93
        8
 72
     2
 10
26.2594956315163
 20
-92.72288547896923
 40
0.9118481501444574
 50
295.3740086781763
 51
424.6259913218076
 73
     1
 72
     2
 10
26.78553832960418
 20
-91.61374387900142
 40
0.3157169230767884
 50
115.3740086783524
 51
180.0
 73
     0
 72
     1
 10
26.46982140652739
 20
-91.61374387900142
 11
26.46982140652739
 21
-91.00820859049463
 72
     2
 10
26.78553832960418
 20
-91.00820859049463
 40
0.3157169230760711
 50
180.0
 51
269.8110329574541
 73
     0
 72
     2
 10
26.7911544649142
 20
-92.71104353806373
 40
2.018561131933266
 50
269.8110329575858
 51
450.1889670424142
 73
     0
 72
     2
 10
26.78553832960418
 20
-94.41387848563272
 40
0.3157169230767884
 50
90.18896704254585
 51
180.0
 73
     0
 72
     1
 10
26.46982140652739
 20
-94.41387848563272
 11
26.46982140652739
 21
-93.83202707893764
 72
     2
 10
26.78553832960418
 20
-93.83202707893764
 40
0.3157169230765343
 50
180.0
 51
244.6259913216475
 73
     0
 97
        8
330
1FC
330
1D8
330
184
330
1FB
330
1D9
330
1DA
330
183
330
1D7
 92
       16
 93
       12
 72
     1
 10
24.20998964307248
 20
-95.68020307964034
 11
25.6858229040821
 21
-95.68020307964034
 72
     2
 10
25.6858229040821
 20
-95.36448615656363
 40
0.3157169230767067
 50
270.0
 51
360.0
 73
     1
 72
     1
 10
26.0015398271587
 20
-95.36448615656363
 11
26.0015398271587
 21
-93.83371522503202
 72
     2
 10
25.6858229040821
 20
-93.83371522503202
 40
0.3157169230766002
 50
0.0
 51
64.80558935146027
 73
     1
 72
     2
 10
26.20840735165709
 20
-92.72288547896923
 40
0.9118975235576161
 50
115.1944106485124
 51
244.8055893514716
 73
     0
 72
     2
 10
25.6858229040821
 20
-91.61205573290704
 40
0.3157169230761203
 50
295.1944106485397
 51
360.0
 73
     1
 72
     1
 10
26.0015398271587
 20
-91.61205573290704
 11
26.0015398271587
 21
-91.00803111384653
 72
     2
 10
25.6858229040821
 20
-91.00803111384653
 40
0.3157169230766002
 50
0.0
 51
90.0
 73
     1
 72
     1
 10
25.6858229040821
 20
-90.69231419077033
 11
24.20998964307248
 21
-90.69231419077033
 72
     2
 10
24.20998964307248
 20
-91.00803111384653
 40
0.3157169230761951
 50
90.0
 51
180.0
 73
     1
 72
     1
 10
23.89427271999679
 20
-91.00803111384653
 11
23.89427271999679
 21
-95.36448615656363
 72
     2
 10
24.20998964307248
 20
-95.36448615656363
 40
0.3157169230756907
 50
180.0
 51
270.0
 73
     1
 97
       12
330
150
330
1E1
330
14F
330
1F2
330
14E
330
1F1
330
1E2
330
1E3
330
14D
330
1F0
330
148
330
1F3
 75
     1
 76
     0
 52
45.0
 41
0.1
 77
     0
 78
     1
 53
45.0
 43
0.0
 44
0.0
 45
-0.0707106781186548
 46
0.0707106781186548
 79
     0
 98
        1
 10
0.0
 20
0.0
  0
HATCH
  5
232
330
71
100
AcDbEntity
  8
1
  6
Continuous
 62
     2
100
AcDbHatch
 10
0.0
 20
0.0
 30
0.0
210
0.0
220
0.0
230
1.0
  2
_USER
 70
     0
 71
     1
 91
        2
 92
        1
 93
       12
 72
     2
 10
38.29125897031528
 20
-91.50666339711762
 40
1.526904761905882
 50
90.0
 51
270.0
 73
     1
 72
     1
 10
38.29125897031528
 20
-93.03356815902293
 11
41.44157869409628
 21
-93.03356815902293
 72
     1
 10
41.44157869409628
 20
-93.03356815902293
 11
41.44157869409628
 21
-92.33555455358044
 72
     1
 10
41.44157869409628
 20
-92.33555455358044
 11
40.1056508676686
 21
-92.33555455358044
 72
     1
 10
40.1056508676686
 20
-92.33555455358044
 11
40.1056508676686
 21
-91.85567019983873
 72
     1
 10
40.1056508676686
 20
-91.85567019983873
 11
41.44157869409628
 21
-91.85567019983873
 72
     1
 10
41.44157869409628
 20
-91.85567019983873
 11
41.44157869409628
 21
-91.15765659439643
 72
     1
 10
41.44157869409628
 20
-91.15765659439643
 11
40.1056508676686
 21
-91.15765659439643
 72
     1
 10
40.1056508676686
 20
-91.15765659439643
 11
40.1056508676686
 21
-90.67777224065472
 72
     1
 10
40.1056508676686
 20
-90.67777224065472
 11
41.44157869409628
 21
-90.67777224065472
 72
     1
 10
41.44157869409628
 20
-90.67777224065472
 11
41.44157869409628
 21
-89.97975863521174
 72
     1
 10
41.44157869409628
 20
-89.97975863521174
 11
38.29125897031528
 21
-89.97975863521174
 97
       12
330
13F
330
139
330
160
330
15F
330
15E
330
15D
330
13A
330
13B
330
13C
330
13D
330
1DF
330
13E
 92
       16
 93
        4
 72
     2
 10
38.70727101682678
 20
-91.50666339711762
 40
0.7717997786796724
 50
141.8795802028404
 51
218.1204197971562
 73
     1
 72
     2
 10
38.50753098048048
 20
-91.66339457523804
 40
0.5179085730134372
 50
218.1204197971511
 51
321.8795802028566
 73
     1
 72
     2
 10
38.3077909441343
 20
-91.50666339711762
 40
0.7717997786796373
 50
321.8795802028437
 51
398.1204197971596
 73
     1
 72
     2
 10
38.50753098048048
 20
-91.34993221899714
 40
0.5179085730135266
 50
38.12041979714334
 51
141.8795802028489
 73
     1
 97
        4
330
1EC
330
1EB
330
1E6
330
1E5
 75
     1
 76
     0
 52
45.0
 41
0.1
 77
     0
 78
     1
 53
45.0
 43
0.0
 44
0.0
 45
-0.0707106781186548
 46
0.0707106781186548
 79
     0
 98
        1
 10
0.0
 20
0.0
  0
HATCH
  5
233
330
71
100
AcDbEntity
  8
1
  6
Continuous
 62
     2
100
AcDbHatch
 10
0.0
 20
0.0
 30
0.0
210
0.0
220
0.0
230
1.0
  2
_USER
 70
     0
 71
     1
 91
        2
 92
        1
 93
       12
 72
     2
 10
38.29125897031528
 20
-91.50666339711762
 40
1.526904761905882
 50
90.0
 51
270.0
 73
     1
 72
     1
 10
38.29125897031528
 20
-93.03356815902293
 11
41.44157869409628
 21
-93.03356815902293
 72
     1
 10
41.44157869409628
 20
-93.03356815902293
 11
41.44157869409628
 21
-92.33555455358044
 72
     1
 10
41.44157869409628
 20
-92.33555455358044
 11
40.1056508676686
 21
-92.33555455358044
 72
     1
 10
40.1056508676686
 20
-92.33555455358044
 11
40.1056508676686
 21
-91.85567019983873
 72
     1
 10
40.1056508676686
 20
-91.85567019983873
 11
41.44157869409628
 21
-91.85567019983873
 72
     1
 10
41.44157869409628
 20
-91.85567019983873
 11
41.44157869409628
 21
-91.15765659439643
 72
     1
 10
41.44157869409628
 20
-91.15765659439643
 11
40.1056508676686
 21
-91.15765659439643
 72
     1
 10
40.1056508676686
 20
-91.15765659439643
 11
40.1056508676686
 21
-90.67777224065472
 72
     1
 10
40.1056508676686
 20
-90.67777224065472
 11
41.44157869409628
 21
-90.67777224065472
 72
     1
 10
41.44157869409628
 20
-90.67777224065472
 11
41.44157869409628
 21
-89.97975863521174
 72
     1
 10
41.44157869409628
 20
-89.97975863521174
 11
38.29125897031528
 21
-89.97975863521174
 97
       12
330
13F
330
139
330
160
330
15F
330
15E
330
15D
330
13A
330
13B
330
13C
330
13D
330
1DF
330
13E
 92
       16
 93
        4
 72
     2
 10
38.70727101682678
 20
-91.50666339711762
 40
0.7717997786796724
 50
141.8795802028404
 51
218.1204197971562
 73
     1
 72
     2
 10
38.50753098048048
 20
-91.66339457523804
 40
0.5179085730134372
 50
218.1204197971511
 51
321.8795802028566
 73
     1
 72
     2
 10
38.3077909441343
 20
-91.50666339711762
 40
0.7717997786796373
 50
321.8795802028437
 51
398.1204197971596
 73
     1
 72
     2
 10
38.50753098048048
 20
-91.34993221899714
 40
0.5179085730135266
 50
38.12041979714334
 51
141.8795802028489
 73
     1
 97
        4
330
1EC
330
1EB
330
1E6
330
1E5
 75
     1
 76
     0
 52
45.0
 41
0.1
 77
     0
 78
     1
 53
45.0
 43
0.0
 44
0.0
 45
-0.0707106781186548
 46
0.0707106781186548
 79
     0
 98
        1
 10
0.0
 20
0.0
  0
HATCH
  5
234
330
71
100
AcDbEntity
  8
1
  6
Continuous
 62
     2
100
AcDbHatch
 10
0.0
 20
0.0
 30
0.0
210
0.0
220
0.0
230
1.0
  2
_USER
 70
     0
 71
     1
 91
        2
 92
        1
 93
        4
 72
     2
 10
34.26564360785369
 20
-94.86585387329194
 40
1.45803408365149
 50
117.5481481756624
 51
242.4518518243375
 73
     1
 72
     2
 10
34.54658349968699
 20
-94.32727886298863
 40
2.065479772208509
 50
242.4518518243402
 51
297.5481481756869
 73
     1
 72
     2
 10
34.82752339152029
 20
-94.86585387329194
 40
1.458034083651999
 50
297.5481481757009
 51
422.4518518242992
 73
     1
 72
     2
 10
34.54658349968699
 20
-95.40442888359473
 40
2.065479772208564
 50
62.45185182430654
 51
117.5481481756664
 73
     1
 97
        4
330
1EA
330
1E7
330
1E9
330
1E8
 92
       16
 93
        4
 72
     2
 10
34.54658349968699
 20
-94.70912269517143
 40
0.5179085730133054
 50
38.12041979714655
 51
141.8795802028588
 73
     1
 72
     2
 10
34.74632353603309
 20
-94.86585387329194
 40
0.7717997786794633
 50
141.8795802028363
 51
218.1204197971687
 73
     1
 72
     2
 10
34.54658349968699
 20
-95.02258505141194
 40
0.5179085730137354
 50
218.1204197971931
 51
321.8795802028015
 73
     1
 72
     2
 10
34.34684346334058
 20
-94.86585387329194
 40
0.7717997786796947
 50
321.8795802028417
 51
398.1204197971533
 73
     1
 97
        4
330
1CD
330
1CE
330
1CF
330
1CC
 75
     1
 76
     0
 52
45.0
 41
0.1
 77
     0
 78
     1
 53
45.0
 43
0.0
 44
0.0
 45
-0.0707106781186548
 46
0.0707106781186548
 79
     0
 98
        1
 10
0.0
 20
0.0
  0
HATCH
  5
235
330
71
100
AcDbEntity
  8
1
  6
Continuous
 62
     2
100
AcDbHatch
 10
0.0
 20
0.0
 30
0.0
210
0.0
220
0.0
230
1.0
  2
_USER
 70
     0
 71
     1
 91
        2
 92
        1
 93
        4
 72
     2
 10
34.26564360785369
 20
-94.86585387329194
 40
1.45803408365149
 50
117.5481481756624
 51
242.4518518243375
 73
     1
 72
     2
 10
34.54658349968699
 20
-94.32727886298863
 40
2.065479772208509
 50
242.4518518243402
 51
297.5481481756869
 73
     1
 72
     2
 10
34.82752339152029
 20
-94.86585387329194
 40
1.458034083651999
 50
297.5481481757009
 51
422.4518518242992
 73
     1
 72
     2
 10
34.54658349968699
 20
-95.40442888359473
 40
2.065479772208564
 50
62.45185182430654
 51
117.5481481756664
 73
     1
 97
        4
330
1EA
330
1E7
330
1E9
330
1E8
 92
       16
 93
        4
 72
     2
 10
34.54658349968699
 20
-94.70912269517143
 40
0.5179085730133054
 50
38.12041979714655
 51
141.8795802028588
 73
     1
 72
     2
 10
34.74632353603309
 20
-94.86585387329194
 40
0.7717997786794633
 50
141.8795802028363
 51
218.1204197971687
 73
     1
 72
     2
 10
34.54658349968699
 20
-95.02258505141194
 40
0.5179085730137354
 50
218.1204197971931
 51
321.8795802028015
 73
     1
 72
     2
 10
34.34684346334058
 20
-94.86585387329194
 40
0.7717997786796947
 50
321.8795802028417
 51
398.1204197971533
 73
     1
 97
        4
330
1CD
330
1CE
330
1CF
330
1CC
 75
     1
 76
     0
 52
45.0
 41
0.1
 77
     0
 78
     1
 53
45.0
 43
0.0
 44
0.0
 45
-0.0707106781186548
 46
0.0707106781186548
 79
     0
 98
        1
 10
0.0
 20
0.0
  0
HATCH
  5
236
330
71
100
AcDbEntity
  8
1
  6
Continuous
 62
     2
100
AcDbHatch
 10
0.0
 20
0.0
 30
0.0
210
0.0
220
0.0
230
1.0
  2
_USER
 70
     0
 71
     1
 91
        2
 92
        1
 93
        6
 72
     1
 10
29.99076875329348
 20
-89.97975863521174
 11
29.99076875329348
 21
-93.03356815902293
 72
     1
 10
29.99076875329348
 20
-93.03356815902293
 11
31.2312731635476
 21
-93.03356815902293
 72
     1
 10
31.2312731635476
 20
-93.03356815902293
 11
31.2312731635476
 21
-92.09048991787913
 72
     1
 10
31.2312731635476
 20
-92.09048991787913
 11
31.99004075132788
 21
-92.09048991787913
 72
     2
 10
31.99004075132788
 20
-91.03512427654542
 40
1.055365641333708
 50
270.0
 51
450.0
 73
     1
 72
     1
 10
31.99004075132788
 20
-89.97975863521174
 11
29.99076875329348
 21
-89.97975863521174
 97
        6
330
1F4
330
151
330
147
330
146
330
153
330
152
 92
       16
 93
        4
 72
     1
 10
31.5485682250895
 20
-90.64286448065184
 11
31.2312731635476
 21
-90.64286448065184
 72
     1
 10
31.2312731635476
 20
-90.64286448065184
 11
31.2312731635476
 21
-91.34859212999405
 72
     1
 10
31.2312731635476
 20
-91.34859212999405
 11
31.5485682250895
 21
-91.34859212999405
 72
     2
 10
31.5485682250895
 20
-90.99572830532293
 40
0.3528638246711182
 50
270.0
 51
450.0
 73
     1
 97
        4
330
154
330
145
330
155
330
1E0
 75
     1
 76
     0
 52
45.0
 41
0.1
 77
     0
 78
     1
 53
45.0
 43
0.0
 44
0.0
 45
-0.0707106781186548
 46
0.0707106781186548
 79
     0
 98
        1
 10
0.0
 20
0.0
  0
HATCH
  5
237
330
71
100
AcDbEntity
  8
1
  6
Continuous
 62
     2
100
AcDbHatch
 10
0.0
 20
0.0
 30
0.0
210
0.0
220
0.0
230
1.0
  2
_USER
 70
     0
 71
     1
 91
        2
 92
        1
 93
        6
 72
     1
 10
29.99076875329348
 20
-89.97975863521174
 11
29.99076875329348
 21
-93.03356815902293
 72
     1
 10
29.99076875329348
 20
-93.03356815902293
 11
31.2312731635476
 21
-93.03356815902293
 72
     1
 10
31.2312731635476
 20
-93.03356815902293
 11
31.2312731635476
 21
-92.09048991787913
 72
     1
 10
31.2312731635476
 20
-92.09048991787913
 11
31.99004075132788
 21
-92.09048991787913
 72
     2
 10
31.99004075132788
 20
-91.03512427654542
 40
1.055365641333708
 50
270.0
 51
450.0
 73
     1
 72
     1
 10
31.99004075132788
 20
-89.97975863521174
 11
29.99076875329348
 21
-89.97975863521174
 97
        6
330
1F4
330
151
330
147
330
146
330
153
330
152
 92
       16
 93
        4
 72
     1
 10
31.5485682250895
 20
-90.64286448065184
 11
31.2312731635476
 21
-90.64286448065184
 72
     1
 10
31.2312731635476
 20
-90.64286448065184
 11
31.2312731635476
 21
-91.34859212999405
 72
     1
 10
31.2312731635476
 20
-91.34859212999405
 11
31.5485682250895
 21
-91.34859212999405
 72
     2
 10
31.5485682250895
 20
-90.99572830532293
 40
0.3528638246711182
 50
270.0
 51
450.0
 73
     1
 97
        4
330
154
330
145
330
155
330
1E0
 75
     1
 76
     0
 52
45.0
 41
0.1
 77
     0
 78
     1
 53
45.0
 43
0.0
 44
0.0
 45
-0.0707106781186548
 46
0.0707106781186548
 79
     0
 98
        1
 10
0.0
 20
0.0
  0
HATCH
  5
238
330
71
100
AcDbEntity
  8
1
  6
Continuous
 62
     2
100
AcDbHatch
 10
0.0
 20
0.0
 30
0.0
210
0.0
220
0.0
230
1.0
  2
_USER
 70
     0
 71
     1
 91
        1
 92
        1
 93
       12
 72
     1
 10
49.60505194772668
 20
-89.97975863521174
 11
51.0077761654739
 21
-89.97975863521174
 72
     1
 10
51.0077761654739
 20
-89.97975863521174
 11
49.70524653470739
 21
-91.45270916524794
 72
     1
 10
49.70524653470739
 20
-91.45270916524794
 11
51.10319958164769
 21
-93.03356815902293
 72
     1
 10
51.10319958164769
 20
-93.03356815902293
 11
49.70047536389939
 21
-93.03356815902293
 72
     1
 10
49.70047536389939
 20
-93.03356815902293
 11
49.00388442583389
 21
-92.24583637372922
 72
     1
 10
49.00388442583389
 20
-92.24583637372922
 11
48.30729348776819
 21
-93.03356815902293
 72
     1
 10
48.30729348776819
 20
-93.03356815902293
 11
46.90456927001998
 21
-93.03356815902293
 72
     1
 10
46.90456927001998
 20
-93.03356815902293
 11
48.30252231696028
 21
-91.45270916524794
 72
     1
 10
48.30252231696028
 20
-91.45270916524794
 11
46.9999926861928
 21
-89.97975863521174
 72
     1
 10
46.9999926861928
 20
-89.97975863521174
 11
48.40271690394209
 21
-89.97975863521174
 72
     1
 10
48.40271690394209
 20
-89.97975863521174
 11
49.00388442583389
 21
-90.65958195676723
 72
     1
 10
49.00388442583389
 20
-90.65958195676723
 11
49.60505194772668
 21
-89.97975863521174
 97
       12
330
120
330
179
330
178
330
177
330
176
330
121
330
122
330
11E
330
11F
330
17C
330
17B
330
17A
 75
     1
 76
     0
 52
45.0
 41
0.1
 77
     0
 78
     1
 53
45.0
 43
0.0
 44
0.0
 45
-0.0707106781186548
 46
0.0707106781186548
 79
     0
 98
        1
 10
0.0
 20
0.0
  0
HATCH
  5
239
330
71
100
AcDbEntity
  8
1
  6
Continuous
 62
     2
100
AcDbHatch
 10
0.0
 20
0.0
 30
0.0
210
0.0
220
0.0
230
1.0
  2
_USER
 70
     0
 71
     1
 91
        1
 92
        1
 93
       12
 72
     1
 10
49.60505194772668
 20
-89.97975863521174
 11
51.0077761654739
 21
-89.97975863521174
 72
     1
 10
51.0077761654739
 20
-89.97975863521174
 11
49.70524653470739
 21
-91.45270916524794
 72
     1
 10
49.70524653470739
 20
-91.45270916524794
 11
51.10319958164769
 21
-93.03356815902293
 72
     1
 10
51.10319958164769
 20
-93.03356815902293
 11
49.70047536389939
 21
-93.03356815902293
 72
     1
 10
49.70047536389939
 20
-93.03356815902293
 11
49.00388442583389
 21
-92.24583637372922
 72
     1
 10
49.00388442583389
 20
-92.24583637372922
 11
48.30729348776819
 21
-93.03356815902293
 72
     1
 10
48.30729348776819
 20
-93.03356815902293
 11
46.90456927001998
 21
-93.03356815902293
 72
     1
 10
46.90456927001998
 20
-93.03356815902293
 11
48.30252231696028
 21
-91.45270916524794
 72
     1
 10
48.30252231696028
 20
-91.45270916524794
 11
46.9999926861928
 21
-89.97975863521174
 72
     1
 10
46.9999926861928
 20
-89.97975863521174
 11
48.40271690394209
 21
-89.97975863521174
 72
     1
 10
48.40271690394209
 20
-89.97975863521174
 11
49.00388442583389
 21
-90.65958195676723
 72
     1
 10
49.00388442583389
 20
-90.65958195676723
 11
49.60505194772668
 21
-89.97975863521174
 97
       12
330
120
330
179
330
178
330
177
330
176
330
121
330
122
330
11E
330
11F
330
17C
330
17B
330
17A
 75
     1
 76
     0
 52
45.0
 41
0.1
 77
     0
 78
     1
 53
45.0
 43
0.0
 44
0.0
 45
-0.0707106781186548
 46
0.0707106781186548
 79
     0
 98
        1
 10
0.0
 20
0.0
  0
HATCH
  5
23A
330
71
100
AcDbEntity
  8
1
  6
Continuous
 62
     2
100
AcDbHatch
 10
0.0
 20
0.0
 30
0.0
210
0.0
220
0.0
230
1.0
  2
_USER
 70
     0
 71
     1
 91
        1
 92
        1
 93
        4
 72
     1
 10
46.7852899998031
 20
-89.97975863521174
 11
46.7852899998031
 21
-93.03356815902293
 72
     1
 10
46.7852899998031
 20
-93.03356815902293
 11
45.5447855895502
 21
-93.03356815902293
 72
     1
 10
45.5447855895502
 20
-93.03356815902293
 11
45.5447855895502
 21
-89.97975863521174
 72
     1
 10
45.5447855895502
 20
-89.97975863521174
 11
46.7852899998031
 21
-89.97975863521174
 97
        4
330
174
330
123
330
173
330
175
 75
     1
 76
     0
 52
45.0
 41
0.1
 77
     0
 78
     1
 53
45.0
 43
0.0
 44
0.0
 45
-0.0707106781186548
 46
0.0707106781186548
 79
     0
 98
        1
 10
0.0
 20
0.0
  0
HATCH
  5
23B
330
71
100
AcDbEntity
  8
1
  6
Continuous
 62
     2
100
AcDbHatch
 10
0.0
 20
0.0
 30
0.0
210
0.0
220
0.0
230
1.0
  2
_USER
 70
     0
 71
     1
 91
        1
 92
        1
 93
        4
 72
     1
 10
46.7852899998031
 20
-89.97975863521174
 11
46.7852899998031
 21
-93.03356815902293
 72
     1
 10
46.7852899998031
 20
-93.03356815902293
 11
45.5447855895502
 21
-93.03356815902293
 72
     1
 10
45.5447855895502
 20
-93.03356815902293
 11
45.5447855895502
 21
-89.97975863521174
 72
     1
 10
45.5447855895502
 20
-89.97975863521174
 11
46.7852899998031
 21
-89.97975863521174
 97
        4
330
174
330
123
330
173
330
175
 75
     1
 76
     0
 52
45.0
 41
0.1
 77
     0
 78
     1
 53
45.0
 43
0.0
 44
0.0
 45
-0.0707106781186548
 46
0.0707106781186548
 79
     0
 98
        1
 10
0.0
 20
0.0
  0
HATCH
  5
23C
330
71
100
AcDbEntity
  8
1
  6
Continuous
 62
     2
100
AcDbHatch
 10
0.0
 20
0.0
 30
0.0
210
0.0
220
0.0
230
1.0
  2
_USER
 70
     0
 71
     1
 91
        2
 92
        1
 93
        8
 72
     1
 10
46.3948459962711
 20
-96.39275863519723
 11
45.15434158601718
 21
-96.39275863519723
 72
     1
 10
45.15434158601718
 20
-96.39275863519723
 11
44.9428615325414
 21
-95.85179809097934
 72
     1
 10
44.9428615325414
 20
-95.85179809097934
 11
43.81041995586759
 21
-95.85179809097934
 72
     1
 10
43.81041995586759
 20
-95.85179809097934
 11
43.59893990239178
 21
-96.39275863519723
 72
     1
 10
43.59893990239178
 20
-96.39275863519723
 11
42.3584354921388
 21
-96.39275863519723
 72
     1
 10
42.3584354921388
 20
-96.39275863519723
 11
43.7563885390781
 21
-93.33894911138614
 72
     1
 10
43.7563885390781
 20
-93.33894911138614
 11
44.9968929493308
 21
-93.33894911138614
 72
     1
 10
44.9968929493308
 20
-93.33894911138614
 11
46.3948459962711
 21
-96.39275863519723
 97
        8
330
16F
330
129
330
16E
330
171
330
126
330
170
330
127
330
128
 92
       16
 93
        3
 72
     1
 10
44.07647550701259
 20
-95.17123482567274
 11
44.67680598139509
 21
-95.17123482567274
 72
     1
 10
44.67680598139509
 20
-95.17123482567274
 11
44.37664074420499
 21
-94.40341985968604
 72
     1
 10
44.37664074420499
 20
-94.40341985968604
 11
44.07647550701259
 21
-95.17123482567274
 97
        3
330
125
330
124
330
172
 75
     1
 76
     0
 52
45.0
 41
0.1
 77
     0
 78
     1
 53
45.0
 43
0.0
 44
0.0
 45
-0.0707106781186548
 46
0.0707106781186548
 79
     0
 98
        1
 10
0.0
 20
0.0
  0
HATCH
  5
23D
330
71
100
AcDbEntity
  8
1
  6
Continuous
 62
     2
100
AcDbHatch
 10
0.0
 20
0.0
 30
0.0
210
0.0
220
0.0
230
1.0
  2
_USER
 70
     0
 71
     1
 91
        2
 92
        1
 93
        8
 72
     1
 10
46.3948459962711
 20
-96.39275863519723
 11
45.15434158601718
 21
-96.39275863519723
 72
     1
 10
45.15434158601718
 20
-96.39275863519723
 11
44.9428615325414
 21
-95.85179809097934
 72
     1
 10
44.9428615325414
 20
-95.85179809097934
 11
43.81041995586759
 21
-95.85179809097934
 72
     1
 10
43.81041995586759
 20
-95.85179809097934
 11
43.59893990239178
 21
-96.39275863519723
 72
     1
 10
43.59893990239178
 20
-96.39275863519723
 11
42.3584354921388
 21
-96.39275863519723
 72
     1
 10
42.3584354921388
 20
-96.39275863519723
 11
43.7563885390781
 21
-93.33894911138614
 72
     1
 10
43.7563885390781
 20
-93.33894911138614
 11
44.9968929493308
 21
-93.33894911138614
 72
     1
 10
44.9968929493308
 20
-93.33894911138614
 11
46.3948459962711
 21
-96.39275863519723
 97
        8
330
16F
330
129
330
16E
330
171
330
126
330
170
330
127
330
128
 92
       16
 93
        3
 72
     1
 10
44.07647550701259
 20
-95.17123482567274
 11
44.67680598139509
 21
-95.17123482567274
 72
     1
 10
44.67680598139509
 20
-95.17123482567274
 11
44.37664074420499
 21
-94.40341985968604
 72
     1
 10
44.37664074420499
 20
-94.40341985968604
 11
44.07647550701259
 21
-95.17123482567274
 97
        3
330
125
330
124
330
172
 75
     1
 76
     0
 52
45.0
 41
0.1
 77
     0
 78
     1
 53
45.0
 43
0.0
 44
0.0
 45
-0.0707106781186548
 46
0.0707106781186548
 79
     0
 98
        1
 10
0.0
 20
0.0
  0
HATCH
  5
23E
330
71
100
AcDbEntity
  8
1
  6
Continuous
 62
     2
100
AcDbHatch
 10
0.0
 20
0.0
 30
0.0
210
0.0
220
0.0
230
1.0
  2
_USER
 70
     0
 71
     1
 91
        1
 92
        1
 93
        8
 72
     1
 10
40.20092335295658
 20
-93.33894911138614
 11
40.20092335295658
 21
-94.12421441750973
 72
     1
 10
40.20092335295658
 20
-94.12421441750973
 11
41.01202239043118
 21
-94.12421441750973
 72
     1
 10
41.01202239043118
 20
-94.12421441750973
 11
41.01202239043118
 21
-96.39275863519723
 72
     1
 10
41.01202239043118
 20
-96.39275863519723
 11
42.2048150925977
 21
-96.39275863519723
 72
     1
 10
42.2048150925977
 20
-96.39275863519723
 11
42.2048150925977
 21
-94.12421441750973
 72
     1
 10
42.2048150925977
 20
-94.12421441750973
 11
43.0159141300702
 21
-94.12421441750973
 72
     1
 10
43.0159141300702
 20
-94.12421441750973
 11
43.0159141300702
 21
-93.33894911138614
 72
     1
 10
43.0159141300702
 20
-93.33894911138614
 11
40.20092335295658
 21
-93.33894911138614
 97
        8
330
16B
330
16A
330
169
330
12A
330
12B
330
16D
330
12C
330
16C
 75
     1
 76
     0
 52
45.0
 41
0.1
 77
     0
 78
     1
 53
45.0
 43
0.0
 44
0.0
 45
-0.0707106781186548
 46
0.0707106781186548
 79
     0
 98
        1
 10
0.0
 20
0.0
  0
HATCH
  5
23F
330
71
100
AcDbEntity
  8
1
  6
Continuous
 62
     2
100
AcDbHatch
 10
0.0
 20
0.0
 30
0.0
210
0.0
220
0.0
230
1.0
  2
_USER
 70
     0
 71
     1
 91
        1
 92
        1
 93
        8
 72
     1
 10
40.20092335295658
 20
-93.33894911138614
 11
40.20092335295658
 21
-94.12421441750973
 72
     1
 10
40.20092335295658
 20
-94.12421441750973
 11
41.01202239043118
 21
-94.12421441750973
 72
     1
 10
41.01202239043118
 20
-94.12421441750973
 11
41.01202239043118
 21
-96.39275863519723
 72
     1
 10
41.01202239043118
 20
-96.39275863519723
 11
42.2048150925977
 21
-96.39275863519723
 72
     1
 10
42.2048150925977
 20
-96.39275863519723
 11
42.2048150925977
 21
-94.12421441750973
 72
     1
 10
42.2048150925977
 20
-94.12421441750973
 11
43.0159141300702
 21
-94.12421441750973
 72
     1
 10
43.0159141300702
 20
-94.12421441750973
 11
43.0159141300702
 21
-93.33894911138614
 72
     1
 10
43.0159141300702
 20
-93.33894911138614
 11
40.20092335295658
 21
-93.33894911138614
 97
        8
330
16B
330
16A
330
169
330
12A
330
12B
330
16D
330
12C
330
16C
 75
     1
 76
     0
 52
45.0
 41
0.1
 77
     0
 78
     1
 53
45.0
 43
0.0
 44
0.0
 45
-0.0707106781186548
 46
0.0707106781186548
 79
     0
 98
        1
 10
0.0
 20
0.0
  0
HATCH
  5
240
330
71
100
AcDbEntity
  8
1
  6
Continuous
 62
     2
100
AcDbHatch
 10
0.0
 20
0.0
 30
0.0
210
0.0
220
0.0
230
1.0
  2
_USER
 70
     0
 71
     1
 91
        1
 92
        1
 93
       10
 72
     1
 10
42.8729299366957
 20
-89.97975863521174
 11
41.68013723452918
 21
-89.97975863521174
 72
     1
 10
41.68013723452918
 20
-89.97975863521174
 11
41.68013723452918
 21
-93.03356815902293
 72
     1
 10
41.68013723452918
 20
-93.03356815902293
 11
42.8729299366957
 21
-93.03356815902293
 72
     1
 10
42.8729299366957
 20
-93.03356815902293
 11
42.8729299366957
 21
-91.72479264881824
 72
     1
 10
42.8729299366957
 20
-91.72479264881824
 11
44.1134343469497
 21
-93.03356815902293
 72
     1
 10
44.1134343469497
 20
-93.03356815902293
 11
45.3062270491163
 21
-93.03356815902293
 72
     1
 10
45.3062270491163
 20
-93.03356815902293
 11
45.3062270491163
 21
-89.97975863521174
 72
     1
 10
45.3062270491163
 20
-89.97975863521174
 11
44.1134343469497
 21
-89.97975863521174
 72
     1
 10
44.1134343469497
 20
-89.97975863521174
 11
44.1134343469497
 21
-91.28853414541692
 72
     1
 10
44.1134343469497
 20
-91.28853414541692
 11
42.8729299366957
 21
-89.97975863521174
 97
       10
330
165
330
12F
330
130
330
131
330
132
330
168
330
12D
330
167
330
166
330
12E
 75
     1
 76
     0
 52
45.0
 41
0.1
 77
     0
 78
     1
 53
45.0
 43
0.0
 44
0.0
 45
-0.0707106781186548
 46
0.0707106781186548
 79
     0
 98
        1
 10
0.0
 20
0.0
  0
HATCH
  5
241
330
71
100
AcDbEntity
  8
1
  6
Continuous
 62
     2
100
AcDbHatch
 10
0.0
 20
0.0
 30
0.0
210
0.0
220
0.0
230
1.0
  2
_USER
 70
     0
 71
     1
 91
        1
 92
        1
 93
       10
 72
     1
 10
42.8729299366957
 20
-89.97975863521174
 11
41.68013723452918
 21
-89.97975863521174
 72
     1
 10
41.68013723452918
 20
-89.97975863521174
 11
41.68013723452918
 21
-93.03356815902293
 72
     1
 10
41.68013723452918
 20
-93.03356815902293
 11
42.8729299366957
 21
-93.03356815902293
 72
     1
 10
42.8729299366957
 20
-93.03356815902293
 11
42.8729299366957
 21
-91.72479264881824
 72
     1
 10
42.8729299366957
 20
-91.72479264881824
 11
44.1134343469497
 21
-93.03356815902293
 72
     1
 10
44.1134343469497
 20
-93.03356815902293
 11
45.3062270491163
 21
-93.03356815902293
 72
     1
 10
45.3062270491163
 20
-93.03356815902293
 11
45.3062270491163
 21
-89.97975863521174
 72
     1
 10
45.3062270491163
 20
-89.97975863521174
 11
44.1134343469497
 21
-89.97975863521174
 72
     1
 10
44.1134343469497
 20
-89.97975863521174
 11
44.1134343469497
 21
-91.28853414541692
 72
     1
 10
44.1134343469497
 20
-91.28853414541692
 11
42.8729299366957
 21
-89.97975863521174
 97
       10
330
165
330
12F
330
130
330
131
330
132
330
168
330
12D
330
167
330
166
330
12E
 75
     1
 76
     0
 52
45.0
 41
0.1
 77
     0
 78
     1
 53
45.0
 43
0.0
 44
0.0
 45
-0.0707106781186548
 46
0.0707106781186548
 79
     0
 98
        1
 10
0.0
 20
0.0
  0
HATCH
  5
242
330
71
100
AcDbEntity
  8
1
  6
Continuous
 62
     2
100
AcDbHatch
 10
0.0
 20
0.0
 30
0.0
210
0.0
220
0.0
230
1.0
  2
_USER
 70
     0
 71
     1
 91
        1
 92
        1
 93
       10
 72
     1
 10
37.62449111627709
 20
-93.33894911138614
 11
36.43169841410949
 21
-93.33894911138614
 72
     1
 10
36.43169841410949
 20
-93.33894911138614
 11
36.43169841410949
 21
-96.39275863519723
 72
     1
 10
36.43169841410949
 20
-96.39275863519723
 11
37.62449111627709
 21
-96.39275863519723
 72
     1
 10
37.62449111627709
 20
-96.39275863519723
 11
37.62449111627709
 21
-95.08398312499264
 72
     1
 10
37.62449111627709
 20
-95.08398312499264
 11
38.86499552652998
 21
-96.39275863519723
 72
     1
 10
38.86499552652998
 20
-96.39275863519723
 11
40.05778822869638
 21
-96.39275863519723
 72
     1
 10
40.05778822869638
 20
-96.39275863519723
 11
40.05778822869638
 21
-93.33894911138614
 72
     1
 10
40.05778822869638
 20
-93.33894911138614
 11
38.86499552652998
 21
-93.33894911138614
 72
     1
 10
38.86499552652998
 20
-93.33894911138614
 11
38.86499552652998
 21
-94.64772462159124
 72
     1
 10
38.86499552652998
 20
-94.64772462159124
 11
37.62449111627709
 21
-93.33894911138614
 97
       10
330
134
330
135
330
136
330
162
330
137
330
138
330
161
330
164
330
163
330
133
 75
     1
 76
     0
 52
45.0
 41
0.1
 77
     0
 78
     1
 53
45.0
 43
0.0
 44
0.0
 45
-0.0707106781186548
 46
0.0707106781186548
 79
     0
 98
        1
 10
0.0
 20
0.0
  0
HATCH
  5
243
330
71
100
AcDbEntity
  8
1
  6
Continuous
 62
     2
100
AcDbHatch
 10
0.0
 20
0.0
 30
0.0
210
0.0
220
0.0
230
1.0
  2
_USER
 70
     0
 71
     1
 91
        1
 92
        1
 93
       10
 72
     1
 10
37.62449111627709
 20
-93.33894911138614
 11
36.43169841410949
 21
-93.33894911138614
 72
     1
 10
36.43169841410949
 20
-93.33894911138614
 11
36.43169841410949
 21
-96.39275863519723
 72
     1
 10
36.43169841410949
 20
-96.39275863519723
 11
37.62449111627709
 21
-96.39275863519723
 72
     1
 10
37.62449111627709
 20
-96.39275863519723
 11
37.62449111627709
 21
-95.08398312499264
 72
     1
 10
37.62449111627709
 20
-95.08398312499264
 11
38.86499552652998
 21
-96.39275863519723
 72
     1
 10
38.86499552652998
 20
-96.39275863519723
 11
40.05778822869638
 21
-96.39275863519723
 72
     1
 10
40.05778822869638
 20
-96.39275863519723
 11
40.05778822869638
 21
-93.33894911138614
 72
     1
 10
40.05778822869638
 20
-93.33894911138614
 11
38.86499552652998
 21
-93.33894911138614
 72
     1
 10
38.86499552652998
 20
-93.33894911138614
 11
38.86499552652998
 21
-94.64772462159124
 72
     1
 10
38.86499552652998
 20
-94.64772462159124
 11
37.62449111627709
 21
-93.33894911138614
 97
       10
330
134
330
135
330
136
330
162
330
137
330
138
330
161
330
164
330
163
330
133
 75
     1
 76
     0
 52
45.0
 41
0.1
 77
     0
 78
     1
 53
45.0
 43
0.0
 44
0.0
 45
-0.0707106781186548
 46
0.0707106781186548
 79
     0
 98
        1
 10
0.0
 20
0.0
  0
HATCH
  5
244
330
71
100
AcDbEntity
  8
1
  6
Continuous
 62
     2
100
AcDbHatch
 10
0.0
 20
0.0
 30
0.0
210
0.0
220
0.0
230
1.0
  2
_USER
 70
     0
 71
     1
 91
        1
 92
        1
 93
       12
 72
     1
 10
36.62269617734168
 20
-89.97975863521174
 11
36.62269617734168
 21
-93.03356815902293
 72
     1
 10
36.62269617734168
 20
-93.03356815902293
 11
35.42990347517528
 21
-93.03356815902293
 72
     1
 10
35.42990347517528
 20
-93.03356815902293
 11
35.42990347517528
 21
-91.89929605017912
 72
     1
 10
35.42990347517528
 20
-91.89929605017912
 11
34.3802458972678
 21
-91.89929605017912
 72
     1
 10
34.3802458972678
 20
-91.89929605017912
 11
34.3802458972678
 21
-93.03356815902293
 72
     1
 10
34.3802458972678
 20
-93.03356815902293
 11
33.1874531951012
 21
-93.03356815902293
 72
     1
 10
33.1874531951012
 20
-93.03356815902293
 11
33.1874531951012
 21
-89.97975863521174
 72
     1
 10
33.1874531951012
 20
-89.97975863521174
 11
34.3802458972678
 21
-89.97975863521174
 72
     1
 10
34.3802458972678
 20
-89.97975863521174
 11
34.3802458972678
 21
-91.04859196854633
 72
     1
 10
34.3802458972678
 20
-91.04859196854633
 11
35.42990347517528
 21
-91.04859196854633
 72
     1
 10
35.42990347517528
 20
-91.04859196854633
 11
35.42990347517528
 21
-89.97975863521174
 72
     1
 10
35.42990347517528
 20
-89.97975863521174
 11
36.62269617734168
 21
-89.97975863521174
 97
       12
330
15C
330
15B
330
15A
330
142
330
143
330
159
330
144
330
158
330
157
330
156
330
140
330
141
 75
     1
 76
     0
 52
45.0
 41
0.1
 77
     0
 78
     1
 53
45.0
 43
0.0
 44
0.0
 45
-0.0707106781186548
 46
0.0707106781186548
 79
     0
 98
        1
 10
0.0
 20
0.0
  0
HATCH
  5
245
330
71
100
AcDbEntity
  8
1
  6
Continuous
 62
     2
100
AcDbHatch
 10
0.0
 20
0.0
 30
0.0
210
0.0
220
0.0
230
1.0
  2
_USER
 70
     0
 71
     1
 91
        1
 92
        1
 93
       12
 72
     1
 10
36.62269617734168
 20
-89.97975863521174
 11
36.62269617734168
 21
-93.03356815902293
 72
     1
 10
36.62269617734168
 20
-93.03356815902293
 11
35.42990347517528
 21
-93.03356815902293
 72
     1
 10
35.42990347517528
 20
-93.03356815902293
 11
35.42990347517528
 21
-91.89929605017912
 72
     1
 10
35.42990347517528
 20
-91.89929605017912
 11
34.3802458972678
 21
-91.89929605017912
 72
     1
 10
34.3802458972678
 20
-91.89929605017912
 11
34.3802458972678
 21
-93.03356815902293
 72
     1
 10
34.3802458972678
 20
-93.03356815902293
 11
33.1874531951012
 21
-93.03356815902293
 72
     1
 10
33.1874531951012
 20
-93.03356815902293
 11
33.1874531951012
 21
-89.97975863521174
 72
     1
 10
33.1874531951012
 20
-89.97975863521174
 11
34.3802458972678
 21
-89.97975863521174
 72
     1
 10
34.3802458972678
 20
-89.97975863521174
 11
34.3802458972678
 21
-91.04859196854633
 72
     1
 10
34.3802458972678
 20
-91.04859196854633
 11
35.42990347517528
 21
-91.04859196854633
 72
     1
 10
35.42990347517528
 20
-91.04859196854633
 11
35.42990347517528
 21
-89.97975863521174
 72
     1
 10
35.42990347517528
 20
-89.97975863521174
 11
36.62269617734168
 21
-89.97975863521174
 97
       12
330
15C
330
15B
330
15A
330
142
330
143
330
159
330
144
330
158
330
157
330
156
330
140
330
141
 75
     1
 76
     0
 52
45.0
 41
0.1
 77
     0
 78
     1
 53
45.0
 43
0.0
 44
0.0
 45
-0.0707106781186548
 46
0.0707106781186548
 79
     0
 98
        1
 10
0.0
 20
0.0
  0
ENDBLK
  5
73
330
71
100
AcDbEntity
  8
0
100
AcDbBlockEnd
  0
BLOCK
  5
75
330
74
100
AcDbEntity
  8
0
100
AcDbBlockBegin
  2
_punkt
 70
     0
 10
148.4999999911306
 20
-103.6862586352135
 30
0.0
  3
_punkt
  1

  0
LINE
  5
246
330
74
100
AcDbEntity
  8
1
  6
Continuous
 62
     2
100
AcDbLine
 10
148.4999999911306
 20
-103.6862586352135
 30
0.0
 11
148.4999999911306
 21
-108.6862586352137
 31
0.0
  0
LINE
  5
247
330
74
100
AcDbEntity
  8
1
  6
Continuous
 62
     2
100
AcDbLine
 10
148.4999999911306
 20
-103.6862586352135
 30
0.0
 11
153.4999999911296
 21
-103.6862586352135
 31
0.0
  0
ENDBLK
  5
76
330
74
100
AcDbEntity
  8
0
100
AcDbBlockEnd
  0
BLOCK
  5
7A
330
77
100
AcDbEntity
  8
0
100
AcDbBlockBegin
  2
A4I_CS
 70
     0
 10
148.4999999911306
 20
-108.6862586352137
 30
0.0
  3
A4I_CS
  1

  0
INSERT
  5
78
330
77
100
AcDbEntity
  8
1
100
AcDbBlockReference
  2
_rahmen
 10
148.4999999911306
 20
-108.6862586352137
 30
0.0
  0
INSERT
  5
79
330
77
100
AcDbEntity
  8
1
100
AcDbBlockReference
  2
_punkt
 10
148.4999999911306
 20
-103.6862586352135
 30
0.0
  0
ENDBLK
  5
7B
330
77
100
AcDbEntity
  8
0
100
AcDbBlockEnd
  0
BLOCK
  5
84
330
7C
100
AcDbEntity
  8
0
100
AcDbBlockBegin
  2
1
 70
     0
 10
0.0
 20
0.0
 30
0.0
  3
1
  1

  0
INSERT
  5
7D
330
7C
100
AcDbEntity
  8
0
100
AcDbBlockReference
  2
AllgSicht1
 10
76.4453499999826
 20
-27.0
 30
0.0
  0
INSERT
  5
7E
330
7C
100
AcDbEntity
  8
0
100
AcDbBlockReference
  2
Drfsicht1
 10
-42.44535014043814
 20
-26.99999961611517
 30
0.0
  0
INSERT
  5
7F
330
7C
100
AcDbEntity
  8
0
100
AcDbBlockReference
  2
Rckans1
 10
76.44535014044095
 20
37.0
 30
0.0
  0
INSERT
  5
80
330
7C
100
AcDbEntity
  8
0
100
AcDbBlockReference
  2
SA_Links1
 10
17.00000000001
 20
36.99999999999999
 30
0.0
  0
INSERT
  5
81
330
7C
100
AcDbEntity
  8
0
100
AcDbBlockReference
  2
SA_Rechts1
 10
-114.890700280847
 20
37.00000000000002
 30
0.0
  0
INSERT
  5
82
330
7C
100
AcDbEntity
  8
0
100
AcDbBlockReference
  2
Vordans1
 10
-42.44535014043814
 20
37.0
 30
0.0
  0
INSERT
  5
83
330
7C
100
AcDbEntity
  8
0
100
AcDbBlockReference
  2
A4I_CS
 10
148.4999999911306
 20
-108.6862586352137
 30
0.0
  0
ENDBLK
  5
85
330
7C
100
AcDbEntity
  8
0
100
AcDbBlockEnd
  0
BLOCK
  5
BC
330
B3
100
AcDbEntity
  8
0
100
AcDbBlockBegin
  2
*D17
 70
     1
 10
0.0
 20
0.0
 30
0.0
  3
*D17
  1

  0
LINE
  5
B4
330
B3
100
AcDbEntity
  8
1
  6
Continuous
 62
     2
100
AcDbLine
 10
-94.5412957585205
 20
-15.1842454766646
 30
0.0
 11
-94.5412957585205
 21
-25.89999933010758
 31
0.0
  0
LINE
  5
B5
330
B3
100
AcDbEntity
  8
1
  6
Continuous
 62
     2
100
AcDbLine
 10
-94.5412957585205
 20
-25.89999933010758
 30
0.0
 11
-94.5412957585205
 21
-28.09999932993782
 31
0.0
  0
LINE
  5
B6
330
B3
100
AcDbEntity
  8
1
  6
Continuous
 62
     2
100
AcDbLine
 10
-94.5412957585205
 20
-28.09999932993782
 30
0.0
 11
-94.5412957585205
 21
-35.09999932993782
 31
0.0
  0
LINE
  5
B7
330
B3
100
AcDbEntity
  8
1
  6
Continuous
 62
     2
100
AcDbLine
 10
-79.89069995433991
 20
-25.89999933010758
 30
0.0
 11
-96.0412957585205
 21
-25.89999933010758
 31
0.0
  0
LINE
  5
B8
330
B3
100
AcDbEntity
  8
1
  6
Continuous
 62
     2
100
AcDbLine
 10
-79.89069995434099
 20
-28.09999932993782
 30
0.0
 11
-96.0412957585205
 21
-28.09999932993782
 31
0.0
  0
SOLID
  5
B9
330
B3
100
AcDbEntity
  8
1
 62
     2
100
AcDbTrace
 10
-95.00207950007639
 20
-22.39999933010758
 30
0.0
 11
-94.08051201696462
 21
-22.39999933010758
 31
0.0
 12
-94.5412957585205
 22
-25.89999933010758
 32
0.0
 13
-94.5412957585205
 23
-25.89999933010758
 33
0.0
  0
SOLID
  5
BA
330
B3
100
AcDbEntity
  8
1
 62
     2
100
AcDbTrace
 10
-94.08051201696462
 20
-31.59999932993782
 30
0.0
 11
-95.00207950007639
 21
-31.59999932993782
 31
0.0
 12
-94.5412957585205
 22
-28.09999932993782
 32
0.0
 13
-94.5412957585205
 23
-28.09999932993782
 33
0.0
  0
MTEXT
  5
BB
330
B3
100
AcDbEntity
  8
1
 62
     3
100
AcDbMText
 10
-96.3912957585205
 20
-21.6592454766646
 30
0.0
 40
3.5
 41
0.0
 71
     7
 72
     1
  1
2,2
  7
CONVERTER_11
 11
0.0
 21
1.0
 31
0.0
 73
     1
 44
0.60024009603842
  0
ENDBLK
  5
BD
330
B3
100
AcDbEntity
  8
0
100
AcDbBlockEnd
  0
BLOCK
  5
100
330
F9
100
AcDbEntity
  8
0
100
AcDbBlockBegin
  2
*D18
 70
     1
 10
0.0
 20
0.0
 30
0.0
  3
*D18
  1

  0
LINE
  5
FA
330
F9
100
AcDbEntity
  8
1
  6
Continuous
 62
     2
100
AcDbLine
 10
-94.5412957585205
 20
55.3999996425339
 30
0.0
 11
-94.5412957585205
 21
18.59999964243373
 31
0.0
  0
LINE
  5
FB
330
F9
100
AcDbEntity
  8
1
  6
Continuous
 62
     2
100
AcDbLine
 10
-43.1651583480459
 20
55.3999996425339
 30
0.0
 11
-96.0412957585205
 21
55.3999996425339
 31
0.0
  0
LINE
  5
FC
330
F9
100
AcDbEntity
  8
1
  6
Continuous
 62
     2
100
AcDbLine
 10
-79.89070026280618
 20
18.59999964243373
 30
0.0
 11
-96.0412957585205
 21
18.59999964243373
 31
0.0
  0
SOLID
  5
FD
330
F9
100
AcDbEntity
  8
1
 62
     2
100
AcDbTrace
 10
-94.08051201696462
 20
51.8999996425339
 30
0.0
 11
-95.00207950007639
 21
51.8999996425339
 31
0.0
 12
-94.5412957585205
 22
55.3999996425339
 32
0.0
 13
-94.5412957585205
 23
55.3999996425339
 33
0.0
  0
SOLID
  5
FE
330
F9
100
AcDbEntity
  8
1
 62
     2
100
AcDbTrace
 10
-95.00207950007639
 20
22.09999964243373
 30
0.0
 11
-94.08051201696462
 21
22.09999964243373
 31
0.0
 12
-94.5412957585205
 22
18.59999964243373
 32
0.0
 13
-94.5412957585205
 23
18.59999964243373
 33
0.0
  0
MTEXT
  5
FF
330
F9
100
AcDbEntity
  8
1
 62
     3
100
AcDbMText
 10
-96.3912957585205
 20
32.0694883249104
 30
0.0
 40
3.5
 41
0.0
 71
     7
 72
     1
  1
36,8
  7
CONVERTER_11
 11
0.0
 21
1.0
 31
0.0
 73
     1
 44
0.60024009603842
  0
ENDBLK
  5
101
330
F9
100
AcDbEntity
  8
0
100
AcDbBlockEnd
  0
BLOCK
  5
10B
330
104
100
AcDbEntity
  8
0
100
AcDbBlockBegin
  2
*D19
 70
     1
 10
0.0
 20
0.0
 30
0.0
  3
*D19
  1

  0
LINE
  5
105
330
104
100
AcDbEntity
  8
1
  6
Continuous
 62
     2
100
AcDbLine
 10
-79.89070026280618
 20
0.41192678466343
 30
0.0
 11
-4.99999988955728
 21
0.41192678466343
 31
0.0
  0
LINE
  5
106
330
104
100
AcDbEntity
  8
1
  6
Continuous
 62
     2
100
AcDbLine
 10
-79.89070026280618
 20
18.59999964243373
 30
0.0
 11
-79.89070026280618
 21
-1.08807321533657
 31
0.0
  0
LINE
  5
107
330
104
100
AcDbEntity
  8
1
  6
Continuous
 62
     2
100
AcDbLine
 10
-4.99999988955728
 20
39.93994722970299
 30
0.0
 11
-4.99999988955728
 21
-1.08807321533657
 31
0.0
  0
SOLID
  5
108
330
104
100
AcDbEntity
  8
1
 62
     2
100
AcDbTrace
 10
-76.39070026280618
 20
0.87271052621931
 30
0.0
 11
-76.39070026280618
 21
-0.04885695689246
 31
0.0
 12
-79.89070026280618
 22
0.41192678466343
 32
0.0
 13
-79.89070026280618
 23
0.41192678466343
 33
0.0
  0
SOLID
  5
109
330
104
100
AcDbEntity
  8
1
 62
     2
100
AcDbTrace
 10
-8.49999988955728
 20
-0.04885695689246
 30
0.0
 11
-8.49999988955728
 21
0.87271052621931
 31
0.0
 12
-4.99999988955728
 22
0.41192678466343
 32
0.0
 13
-4.99999988955728
 23
0.41192678466343
 33
0.0
  0
MTEXT
  5
10A
330
104
100
AcDbEntity
  8
1
 62
     3
100
AcDbMText
 10
-47.1447561912596
 20
2.26192678466343
 30
0.0
 40
3.5
 41
0.0
 71
     7
 72
     1
  1
74,9
  7
CONVERTER_11
 11
0.9999999999970619
 21
2.424068405545306E-6
 31
0.0
 73
     1
 44
0.60024009603842
  0
ENDBLK
  5
10C
330
104
100
AcDbEntity
  8
0
100
AcDbBlockEnd
  0
ENDSEC
  0
SECTION
  2
ENTITIES
  0
INSERT
  5
86
330
1F
100
AcDbEntity
  8
1
100
AcDbBlockReference
  2
1
 10
0.0
 20
0.0
 30
0.0
  0
ENDSEC
  0
SECTION
  2
OBJECTS
  0
DICTIONARY
  5
C
330
0
100
AcDbDictionary
281
     1
  3
ACAD_GROUP
350
D
  3
ACAD_LAYOUT
350
1A
  3
ACAD_MATERIAL
350
3B
  3
ACAD_MLEADERSTYLE
350
26F
  3
ACAD_MLINESTYLE
350
17
  3
ACAD_PLOTSETTINGS
350
19
  3
ACAD_PLOTSTYLENAME
350
E
  3
ACAD_TABLESTYLE
350
26E
  3
ACAD_VISUALSTYLE
350
2A
  0
DICTIONARY
  5
D
102
{ACAD_REACTORS
330
C
102
}
330
C
100
AcDbDictionary
281
     1
  0
DICTIONARY
  5
1A
102
{ACAD_REACTORS
330
C
102
}
330
C
100
AcDbDictionary
281
     1
  3
Layout1
350
1E
  3
Layout2
350
26
  3
Model
350
22
  0
DICTIONARY
  5
3B
102
{ACAD_REACTORS
330
C
102
}
330
C
100
AcDbDictionary
281
     1
  3
ByBlock
350
3D
  3
ByLayer
350
3C
  3
Global
350
3E
  0
DICTIONARY
  5
26F
102
{ACAD_REACTORS
330
C
102
}
330
C
100
AcDbDictionary
281
     1
  0
DICTIONARY
  5
17
102
{ACAD_REACTORS
330
C
102
}
330
C
100
AcDbDictionary
281
     1
  3
Standard
350
18
  0
DICTIONARY
  5
19
102
{ACAD_REACTORS
330
C
102
}
330
C
100
AcDbDictionary
281
     1
  0
ACDBDICTIONARYWDFLT
  5
E
102
{ACAD_REACTORS
330
C
102
}
330
C
100
AcDbDictionary
281
     1
  3
Normal
350
F
100
AcDbDictionaryWithDefault
340
F
  0
DICTIONARY
  5
26E
102
{ACAD_REACTORS
330
C
102
}
330
C
100
AcDbDictionary
281
     1
  0
DICTIONARY
  5
2A
102
{ACAD_REACTORS
330
C
102
}
330
C
100
AcDbDictionary
281
     1
  3
2dWireframe
350
2F
  3
3D Hidden
350
31
  3
3dWireframe
350
30
  3
Basic
350
32
  3
Brighten
350
36
  3
ColorChange
350
3A
  3
Conceptual
350
34
  3
Dim
350
35
  3
Facepattern
350
39
  3
Flat
350
2B
  3
FlatWithEdges
350
2C
  3
Gouraud
350
2D
  3
GouraudWithEdges
350
2E
  3
Linepattern
350
38
  3
Realistic
350
33
  3
Thicken
350
37
  0
LAYOUT
  5
1E
102
{ACAD_REACTORS
330
1A
102
}
330
1A
100
AcDbPlotSettings
  1

  2
none_device
  4

  6

 40
0.0
 41
0.0
 42
0.0
 43
0.0
 44
0.0
 45
0.0
 46
0.0
 47
0.0
 48
0.0
 49
0.0
140
0.0
141
0.0
142
1.0
143
1.0
 70
   688
 72
     0
 73
     0
 74
     5
  7

 75
    16
 76
     0
 77
     2
 78
   300
147
1.0
148
0.0
149
0.0
100
AcDbLayout
  1
Layout1
 70
     1
 71
     1
 10
0.0
 20
0.0
 11
12.0
 21
9.0
 12
0.0
 22
0.0
 32
0.0
 14
1.00000000000000E+20
 24
1.00000000000000E+20
 34
1.00000000000000E+20
 15
-1.00000000000000E+20
 25
-1.00000000000000E+20
 35
-1.00000000000000E+20
146
0.0
 13
0.0
 23
0.0
 33
0.0
 16
1.0
 26
0.0
 36
0.0
 17
0.0
 27
1.0
 37
0.0
 76
     0
330
1B
  0
LAYOUT
  5
26
102
{ACAD_REACTORS
330
1A
102
}
330
1A
100
AcDbPlotSettings
  1

  2
none_device
  4

  6

 40
0.0
 41
0.0
 42
0.0
 43
0.0
 44
0.0
 45
0.0
 46
0.0
 47
0.0
 48
0.0
 49
0.0
140
0.0
141
0.0
142
1.0
143
1.0
 70
   688
 72
     0
 73
     0
 74
     5
  7

 75
    16
 76
     0
 77
     2
 78
   300
147
1.0
148
0.0
149
0.0
100
AcDbLayout
  1
Layout2
 70
     1
 71
     2
 10
0.0
 20
0.0
 11
0.0
 21
0.0
 12
0.0
 22
0.0
 32
0.0
 14
0.0
 24
0.0
 34
0.0
 15
0.0
 25
0.0
 35
0.0
146
0.0
 13
0.0
 23
0.0
 33
0.0
 16
1.0
 26
0.0
 36
0.0
 17
0.0
 27
1.0
 37
0.0
 76
     0
330
23
  0
LAYOUT
  5
22
102
{ACAD_REACTORS
330
1A
102
}
330
1A
100
AcDbPlotSettings
  1

  2
none_device
  4

  6

 40
0.0
 41
0.0
 42
0.0
 43
0.0
 44
0.0
 45
0.0
 46
0.0
 47
0.0
 48
0.0
 49
0.0
140
0.0
141
0.0
142
1.0
143
1.0
 70
  1712
 72
     0
 73
     0
 74
     0
  7

 75
     0
 76
     0
 77
     2
 78
   300
147
1.0
148
0.0
149
0.0
100
AcDbLayout
  1
Model
 70
     1
 71
     0
 10
0.0
 20
0.0
 11
12.0
 21
9.0
 12
0.0
 22
0.0
 32
0.0
 14
-143.5000000088685
 24
-108.6862586352137
 34
0.0
 15
153.4999999911296
 25
101.3137413647865
 35
0.0
146
0.0
 13
0.0
 23
0.0
 33
0.0
 16
1.0
 26
0.0
 36
0.0
 17
0.0
 27
1.0
 37
0.0
 76
     0
330
1F
331
29
  0
MATERIAL
  5
3D
102
{ACAD_REACTORS
330
3B
102
}
102
{ACAD_XDICTIONARY
360
26A
102
}
330
3B
100
AcDbMaterial
  1
ByBlock
  0
MATERIAL
  5
3C
102
{ACAD_REACTORS
330
3B
102
}
102
{ACAD_XDICTIONARY
360
268
102
}
330
3B
100
AcDbMaterial
  1
ByLayer
  0
MATERIAL
  5
3E
102
{ACAD_REACTORS
330
3B
102
}
102
{ACAD_XDICTIONARY
360
26C
102
}
330
3B
100
AcDbMaterial
  1
Global
  0
MLINESTYLE
  5
18
102
{ACAD_REACTORS
330
17
102
}
330
17
100
AcDbMlineStyle
  2
Standard
 70
     0
  3

 62
   256
 51
90.0
 52
90.0
 71
     2
 49
0.5
 62
   256
  6
BYLAYER
 49
-0.5
 62
   256
  6
BYLAYER
  0
ACDBPLACEHOLDER
  5
F
102
{ACAD_REACTORS
330
E
102
}
330
E
  0
VISUALSTYLE
  5
2F
102
{ACAD_REACTORS
330
2A
102
}
102
{ACAD_XDICTIONARY
360
250
102
}
330
2A
100
AcDbVisualStyle
  2
2dWireframe
 70
     4
 71
     0
 72
     2
 73
     0
 90
        0
 40
-0.6
 41
-30.0
 62
     5
 63
     7
421
 16777215
 74
     1
 91
        4
 64
     7
 65
   257
 75
     1
175
     1
 42
1.0
 92
        0
 66
   257
 43
1.0
 76
     1
 77
     6
 78
     2
 67
     7
 79
     5
170
     0
171
     0
290
     0
174
     0
 93
        1
 44
0.0
173
     0
291
     0
 45
0.0
1001
ACAD
1000
AcDbSavedByObjectVersion
1070
     0
  0
VISUALSTYLE
  5
31
102
{ACAD_REACTORS
330
2A
102
}
102
{ACAD_XDICTIONARY
360
254
102
}
330
2A
100
AcDbVisualStyle
  2
3D Hidden
 70
     6
 71
     1
 72
     2
 73
     2
 90
        0
 40
-0.6
 41
-30.0
 62
     5
 63
     7
421
 16777215
 74
     2
 91
        2
 64
     7
 65
   257
 75
     2
175
     1
 42
40.0
 92
        0
 66
   257
 43
1.0
 76
     1
 77
     6
 78
     2
 67
     7
 79
     3
170
     0
171
     0
290
     0
174
     0
 93
        1
 44
0.0
173
     0
291
     0
 45
0.0
1001
ACAD
1000
AcDbSavedByObjectVersion
1070
     0
  0
VISUALSTYLE
  5
30
102
{ACAD_REACTORS
330
2A
102
}
102
{ACAD_XDICTIONARY
360
252
102
}
330
2A
100
AcDbVisualStyle
  2
3dWireframe
 70
     5
 71
     0
 72
     2
 73
     0
 90
        0
 40
-0.6
 41
-30.0
 62
     5
 63
     7
421
 16777215
 74
     1
 91
        4
 64
     7
 65
   257
 75
     1
175
     1
 42
1.0
 92
        0
 66
   257
 43
1.0
 76
     1
 77
     6
 78
     2
 67
     7
 79
     5
170
     0
171
     0
290
     0
174
     0
 93
        1
 44
0.0
173
     0
291
     0
 45
0.0
1001
ACAD
1000
AcDbSavedByObjectVersion
1070
     0
  0
VISUALSTYLE
  5
32
102
{ACAD_REACTORS
330
2A
102
}
102
{ACAD_XDICTIONARY
360
256
102
}
330
2A
100
AcDbVisualStyle
  2
Basic
 70
     7
 71
     1
 72
     0
 73
     1
 90
        0
 40
-0.6
 41
-30.0
 62
     5
 63
     7
421
 16777215
 74
     0
 91
        4
 64
     7
 65
   257
 75
     1
175
     1
 42
1.0
 92
        8
 66
     7
 43
1.0
 76
     1
 77
     6
 78
     2
 67
     7
 79
     5
170
     0
171
     0
290
     0
174
     0
 93
        1
 44
0.0
173
     0
291
     1
 45
0.0
1001
ACAD
1000
AcDbSavedByObjectVersion
1070
     0
  0
VISUALSTYLE
  5
36
102
{ACAD_REACTORS
330
2A
102
}
102
{ACAD_XDICTIONARY
360
25E
102
}
330
2A
100
AcDbVisualStyle
  2
Brighten
 70
    12
 71
     2
 72
     2
 73
     0
 90
        0
 40
-0.6
 41
-30.0
 62
     5
 63
     7
421
 16777215
 74
     1
 91
        4
 64
     7
 65
   257
 75
     1
175
     1
 42
1.0
 92
        8
 66
     7
 43
1.0
 76
     1
 77
     6
 78
     2
 67
     7
 79
     5
170
     0
171
     0
290
     0
174
     0
 93
        1
 44
50.0
173
     0
291
     1
 45
0.0
1001
ACAD
1000
AcDbSavedByObjectVersion
1070
     0
  0
VISUALSTYLE
  5
3A
102
{ACAD_REACTORS
330
2A
102
}
102
{ACAD_XDICTIONARY
360
266
102
}
330
2A
100
AcDbVisualStyle
  2
ColorChange
 70
    16
 71
     2
 72
     2
 73
     3
 90
        0
 40
-0.6
 41
-30.0
 62
     5
 63
     8
421
  8421504
 74
     1
 91
        4
 64
     7
 65
   257
 75
     1
175
     1
 42
1.0
 92
        8
 66
     8
424
  8421504
 43
1.0
 76
     1
 77
     6
 78
     2
 67
     7
 79
     5
170
     0
171
     0
290
     0
174
     0
 93
        1
 44
0.0
173
     0
291
     1
 45
0.0
1001
ACAD
1000
AcDbSavedByObjectVersion
1070
     0
  0
VISUALSTYLE
  5
34
102
{ACAD_REACTORS
330
2A
102
}
102
{ACAD_XDICTIONARY
360
25A
102
}
330
2A
100
AcDbVisualStyle
  2
Conceptual
 70
     9
 71
     3
 72
     2
 73
     0
 90
        0
 40
-0.6
 41
-30.0
 62
     5
 63
     7
421
 16777215
 74
     2
 91
        2
 64
     7
 65
   257
 75
     1
175
     1
 42
40.0
 92
        8
 66
     7
 43
1.0
 76
     1
 77
     6
 78
     2
 67
     7
 79
     3
170
     0
171
     0
290
     0
174
     0
 93
        1
 44
0.0
173
     0
291
     0
 45
0.0
1001
ACAD
1000
AcDbSavedByObjectVersion
1070
     0
  0
VISUALSTYLE
  5
35
102
{ACAD_REACTORS
330
2A
102
}
102
{ACAD_XDICTIONARY
360
25C
102
}
330
2A
100
AcDbVisualStyle
  2
Dim
 70
    11
 71
     2
 72
     2
 73
     0
 90
        0
 40
-0.6
 41
-30.0
 62
     5
 63
     7
421
 16777215
 74
     1
 91
        4
 64
     7
 65
   257
 75
     1
175
     1
 42
1.0
 92
        8
 66
     7
 43
1.0
 76
     1
 77
     6
 78
     2
 67
     7
 79
     5
170
     0
171
     0
290
     0
174
     0
 93
        1
 44
-50.0
173
     0
291
     1
 45
0.0
1001
ACAD
1000
AcDbSavedByObjectVersion
1070
     0
  0
VISUALSTYLE
  5
39
102
{ACAD_REACTORS
330
2A
102
}
102
{ACAD_XDICTIONARY
360
264
102
}
330
2A
100
AcDbVisualStyle
  2
Facepattern
 70
    15
 71
     2
 72
     2
 73
     0
 90
        0
 40
-0.6
 41
-30.0
 62
     5
 63
     7
421
 16777215
 74
     1
 91
        4
 64
     7
 65
   257
 75
     1
175
     1
 42
1.0
 92
        8
 66
     7
 43
1.0
 76
     1
 77
     6
 78
     2
 67
     7
 79
     5
170
     0
171
     0
290
     0
174
     0
 93
        1
 44
0.0
173
     0
291
     1
 45
0.0
1001
ACAD
1000
AcDbSavedByObjectVersion
1070
     0
  0
VISUALSTYLE
  5
2B
102
{ACAD_REACTORS
330
2A
102
}
102
{ACAD_XDICTIONARY
360
248
102
}
330
2A
100
AcDbVisualStyle
  2
Flat
 70
     0
 71
     2
 72
     1
 73
     1
 90
        2
 40
-0.6
 41
30.0
 62
     5
 63
     7
421
 16777215
 74
     0
 91
        4
 64
     7
 65
   257
 75
     1
175
     1
 42
1.0
 92
        8
 66
     7
 43
1.0
 76
     1
 77
     6
 78
     2
 67
     7
 79
     5
170
     0
171
     0
290
     0
174
     0
 93
       13
 44
0.0
173
     0
291
     1
 45
0.0
1001
ACAD
1000
AcDbSavedByObjectVersion
1070
     0
  0
VISUALSTYLE
  5
2C
102
{ACAD_REACTORS
330
2A
102
}
102
{ACAD_XDICTIONARY
360
24A
102
}
330
2A
100
AcDbVisualStyle
  2
FlatWithEdges
 70
     1
 71
     2
 72
     1
 73
     1
 90
        2
 40
-0.6
 41
30.0
 62
     5
 63
     7
421
 16777215
 74
     1
 91
        4
 64
     7
 65
   257
 75
     1
175
     1
 42
1.0
 92
        0
 66
   257
 43
1.0
 76
     1
 77
     6
 78
     2
 67
     7
 79
     5
170
     0
171
     0
290
     0
174
     0
 93
       13
 44
0.0
173
     0
291
     1
 45
0.0
1001
ACAD
1000
AcDbSavedByObjectVersion
1070
     0
  0
VISUALSTYLE
  5
2D
102
{ACAD_REACTORS
330
2A
102
}
102
{ACAD_XDICTIONARY
360
24C
102
}
330
2A
100
AcDbVisualStyle
  2
Gouraud
 70
     2
 71
     2
 72
     2
 73
     1
 90
        2
 40
-0.6
 41
30.0
 62
     5
 63
     7
421
 16777215
 74
     0
 91
        4
 64
     7
 65
   257
 75
     1
175
     1
 42
1.0
 92
        0
 66
     7
 43
1.0
 76
     1
 77
     6
 78
     2
 67
     7
 79
     5
170
     0
171
     0
290
     0
174
     0
 93
       13
 44
0.0
173
     0
291
     1
 45
0.0
1001
ACAD
1000
AcDbSavedByObjectVersion
1070
     0
  0
VISUALSTYLE
  5
2E
102
{ACAD_REACTORS
330
2A
102
}
102
{ACAD_XDICTIONARY
360
24E
102
}
330
2A
100
AcDbVisualStyle
  2
GouraudWithEdges
 70
     3
 71
     2
 72
     2
 73
     1
 90
        2
 40
-0.6
 41
30.0
 62
     5
 63
     7
421
 16777215
 74
     1
 91
        4
 64
     7
 65
   257
 75
     1
175
     1
 42
1.0
 92
        0
 66
   257
 43
1.0
 76
     1
 77
     6
 78
     2
 67
     7
 79
     5
170
     0
171
     0
290
     0
174
     0
 93
       13
 44
0.0
173
     0
291
     1
 45
0.0
1001
ACAD
1000
AcDbSavedByObjectVersion
1070
     0
  0
VISUALSTYLE
  5
38
102
{ACAD_REACTORS
330
2A
102
}
102
{ACAD_XDICTIONARY
360
262
102
}
330
2A
100
AcDbVisualStyle
  2
Linepattern
 70
    14
 71
     2
 72
     2
 73
     0
 90
        0
 40
-0.6
 41
-30.0
 62
     5
 63
     7
421
 16777215
 74
     1
 91
        4
 64
     7
 65
   257
 75
     7
175
     7
 42
1.0
 92
        8
 66
     7
 43
1.0
 76
     1
 77
     6
 78
     2
 67
     7
 79
     5
170
     0
171
     0
290
     0
174
     0
 93
        1
 44
0.0
173
     0
291
     1
 45
0.0
1001
ACAD
1000
AcDbSavedByObjectVersion
1070
     0
  0
VISUALSTYLE
  5
33
102
{ACAD_REACTORS
330
2A
102
}
102
{ACAD_XDICTIONARY
360
258
102
}
330
2A
100
AcDbVisualStyle
  2
Realistic
 70
     8
 71
     2
 72
     2
 73
     0
 90
        0
 40
-0.6
 41
-30.0
 62
     5
 63
     7
421
 16777215
 74
     1
 91
        0
 64
     7
 65
   257
 75
     1
175
     1
 42
1.0
 92
        8
 66
     8
424
  7895160
 43
1.0
 76
     1
 77
     6
 78
     2
 67
     7
 79
     5
170
     0
171
     0
290
     0
174
     0
 93
       13
 44
0.0
173
     0
291
     0
 45
0.0
1001
ACAD
1000
AcDbSavedByObjectVersion
1070
     0
  0
VISUALSTYLE
  5
37
102
{ACAD_REACTORS
330
2A
102
}
102
{ACAD_XDICTIONARY
360
260
102
}
330
2A
100
AcDbVisualStyle
  2
Thicken
 70
    13
 71
     2
 72
     2
 73
     0
 90
        0
 40
-0.6
 41
-30.0
 62
     5
 63
     7
421
 16777215
 74
     1
 91
        4
 64
     7
 65
   257
 75
     1
175
     1
 42
1.0
 92
       12
 66
     7
 43
1.0
 76
     1
 77
     6
 78
     2
 67
     7
 79
     5
170
     0
171
     0
290
     0
174
     0
 93
        1
 44
0.0
173
     0
291
     1
 45
0.0
1001
ACAD
1000
AcDbSavedByObjectVersion
1070
     0
  0
DICTIONARY
  5
26A
330
3D
100
AcDbDictionary
280
     1
281
     1
  3
ACAD_XREC_ROUNDTRIP
360
26B
  0
DICTIONARY
  5
268
330
3C
100
AcDbDictionary
280
     1
281
     1
  3
ACAD_XREC_ROUNDTRIP
360
269
  0
DICTIONARY
  5
26C
330
3E
100
AcDbDictionary
280
     1
281
     1
  3
ACAD_XREC_ROUNDTRIP
360
26D
  0
DICTIONARY
  5
250
330
2F
100
AcDbDictionary
280
     1
281
     1
  3
ACAD_XREC_ROUNDTRIP
360
251
  0
DICTIONARY
  5
254
330
31
100
AcDbDictionary
280
     1
281
     1
  3
ACAD_XREC_ROUNDTRIP
360
255
  0
DICTIONARY
  5
252
330
30
100
AcDbDictionary
280
     1
281
     1
  3
ACAD_XREC_ROUNDTRIP
360
253
  0
DICTIONARY
  5
256
330
32
100
AcDbDictionary
280
     1
281
     1
  3
ACAD_XREC_ROUNDTRIP
360
257
  0
DICTIONARY
  5
25E
330
36
100
AcDbDictionary
280
     1
281
     1
  3
ACAD_XREC_ROUNDTRIP
360
25F
  0
DICTIONARY
  5
266
330
3A
100
AcDbDictionary
280
     1
281
     1
  3
ACAD_XREC_ROUNDTRIP
360
267
  0
DICTIONARY
  5
25A
330
34
100
AcDbDictionary
280
     1
281
     1
  3
ACAD_XREC_ROUNDTRIP
360
25B
  0
DICTIONARY
  5
25C
330
35
100
AcDbDictionary
280
     1
281
     1
  3
ACAD_XREC_ROUNDTRIP
360
25D
  0
DICTIONARY
  5
264
330
39
100
AcDbDictionary
280
     1
281
     1
  3
ACAD_XREC_ROUNDTRIP
360
265
  0
DICTIONARY
  5
248
330
2B
100
AcDbDictionary
280
     1
281
     1
  3
ACAD_XREC_ROUNDTRIP
360
249
  0
DICTIONARY
  5
24A
330
2C
100
AcDbDictionary
280
     1
281
     1
  3
ACAD_XREC_ROUNDTRIP
360
24B
  0
DICTIONARY
  5
24C
330
2D
100
AcDbDictionary
280
     1
281
     1
  3
ACAD_XREC_ROUNDTRIP
360
24D
  0
DICTIONARY
  5
24E
330
2E
100
AcDbDictionary
280
     1
281
     1
  3
ACAD_XREC_ROUNDTRIP
360
24F
  0
DICTIONARY
  5
262
330
38
100
AcDbDictionary
280
     1
281
     1
  3
ACAD_XREC_ROUNDTRIP
360
263
  0
DICTIONARY
  5
258
330
33
100
AcDbDictionary
280
     1
281
     1
  3
ACAD_XREC_ROUNDTRIP
360
259
  0
DICTIONARY
  5
260
330
37
100
AcDbDictionary
280
     1
281
     1
  3
ACAD_XREC_ROUNDTRIP
360
261
  0
XRECORD
  5
26B
102
{ACAD_REACTORS
330
26A
102
}
330
26A
100
AcDbXrecord
280
     1
102
MATERIAL
148
0.0
149
0.0
149
0.0
 93
        0
 94
      127
282
     0
 72
     1
 77
     1
171
     1
175
     1
179
     1
273
     0
  0
XRECORD
  5
269
102
{ACAD_REACTORS
330
268
102
}
330
268
100
AcDbXrecord
280
     1
102
MATERIAL
148
0.0
149
0.0
149
0.0
 93
        0
 94
      127
282
     0
 72
     1
 77
     1
171
     1
175
     1
179
     1
273
     0
  0
XRECORD
  5
26D
102
{ACAD_REACTORS
330
26C
102
}
330
26C
100
AcDbXrecord
280
     1
102
MATERIAL
148
0.0
149
0.0
149
0.0
 93
        0
 94
      127
282
     0
 72
     1
 77
     1
171
     1
175
     1
179
     1
273
     0
  0
XRECORD
  5
251
102
{ACAD_REACTORS
330
250
102
}
330
250
100
AcDbXrecord
280
     1
102
RTVSPropertyOp0
 70
     1
102
RTVSPropertyOp1
 70
     1
102
RTVSPropertyOp2
 70
     1
102
RTVSPropertyOp3
 70
     1
102
RTVSPropertyOp4
 70
     1
102
RTVSPropertyOp5
 70
     1
102
RTVSPropertyOp6
 70
     1
102
RTVSPropertyOp7
 70
     1
102
RTVSPropertyOp8
 70
     1
102
RTVSPropertyOp9
 70
     1
102
RTVSPropertyOp10
 70
     1
102
RTVSPropertyOp11
 70
     1
102
RTVSPropertyOp12
 70
     1
102
RTVSPropertyOp13
 70
     1
102
RTVSPropertyOp14
 70
     1
102
RTVSPropertyOp15
 70
     1
102
RTVSPropertyOp16
 70
     1
102
RTVSPropertyOp17
 70
     1
102
RTVSPropertyOp18
 70
     1
102
RTVSPropertyOp19
 70
     1
102
RTVSPropertyOp20
 70
     1
102
RTVSPropertyOp21
 70
     1
102
RTVSPropertyOp22
 70
     1
102
RTVSPropertyOp23
 70
     1
102
RTVSPropertyOp24
 70
     1
102
RTVSPropertyOp25
 70
     1
102
RTVSPropertyOp26
 70
     1
102
RTVSPropertyOp27
 70
     1
102
RTVSPropertyOp28
 70
     1
102
RTVSPropertyOp29
 70
     1
102
RTVSPropertyOp30
 70
     1
102
RTVSPropertyOp31
 70
     1
102
RTVSPropertyOp32
 70
     1
  0
XRECORD
  5
255
102
{ACAD_REACTORS
330
254
102
}
330
254
100
AcDbXrecord
280
     1
102
RTVSPropertyOp0
 70
     1
102
RTVSPropertyOp1
 70
     1
102
RTVSPropertyOp2
 70
     1
102
RTVSPropertyOp3
 70
     1
102
RTVSPropertyOp4
 70
     1
102
RTVSPropertyOp5
 70
     1
102
RTVSPropertyOp6
 70
     1
102
RTVSPropertyOp7
 70
     1
102
RTVSPropertyOp8
 70
     1
102
RTVSPropertyOp9
 70
     1
102
RTVSPropertyOp10
 70
     1
102
RTVSPropertyOp11
 70
     1
102
RTVSPropertyOp12
 70
     1
102
RTVSPropertyOp13
 70
     1
102
RTVSPropertyOp14
 70
     1
102
RTVSPropertyOp15
 70
     1
102
RTVSPropertyOp16
 70
     1
102
RTVSPropertyOp17
 70
     1
102
RTVSPropertyOp18
 70
     1
102
RTVSPropertyOp19
 70
     1
102
RTVSPropertyOp20
 70
     1
102
RTVSPropertyOp21
 70
     1
102
RTVSPropertyOp22
 70
     1
102
RTVSPropertyOp23
 70
     1
102
RTVSPropertyOp24
 70
     1
102
RTVSPropertyOp25
 70
     1
102
RTVSPropertyOp26
 70
     1
102
RTVSPropertyOp27
 70
     1
102
RTVSPropertyOp28
 70
     1
102
RTVSPropertyOp29
 70
     1
102
RTVSPropertyOp30
 70
     1
102
RTVSPropertyOp31
 70
     1
102
RTVSPropertyOp32
 70
     1
  0
XRECORD
  5
253
102
{ACAD_REACTORS
330
252
102
}
330
252
100
AcDbXrecord
280
     1
102
RTVSPropertyOp0
 70
     1
102
RTVSPropertyOp1
 70
     1
102
RTVSPropertyOp2
 70
     1
102
RTVSPropertyOp3
 70
     1
102
RTVSPropertyOp4
 70
     1
102
RTVSPropertyOp5
 70
     1
102
RTVSPropertyOp6
 70
     1
102
RTVSPropertyOp7
 70
     1
102
RTVSPropertyOp8
 70
     1
102
RTVSPropertyOp9
 70
     1
102
RTVSPropertyOp10
 70
     1
102
RTVSPropertyOp11
 70
     1
102
RTVSPropertyOp12
 70
     1
102
RTVSPropertyOp13
 70
     1
102
RTVSPropertyOp14
 70
     1
102
RTVSPropertyOp15
 70
     1
102
RTVSPropertyOp16
 70
     1
102
RTVSPropertyOp17
 70
     1
102
RTVSPropertyOp18
 70
     1
102
RTVSPropertyOp19
 70
     1
102
RTVSPropertyOp20
 70
     1
102
RTVSPropertyOp21
 70
     1
102
RTVSPropertyOp22
 70
     1
102
RTVSPropertyOp23
 70
     1
102
RTVSPropertyOp24
 70
     1
102
RTVSPropertyOp25
 70
     1
102
RTVSPropertyOp26
 70
     1
102
RTVSPropertyOp27
 70
     1
102
RTVSPropertyOp28
 70
     1
102
RTVSPropertyOp29
 70
     1
102
RTVSPropertyOp30
 70
     1
102
RTVSPropertyOp31
 70
     1
102
RTVSPropertyOp32
 70
     1
  0
XRECORD
  5
257
102
{ACAD_REACTORS
330
256
102
}
330
256
100
AcDbXrecord
280
     1
102
RTVSPropertyOp0
 70
     1
102
RTVSPropertyOp1
 70
     1
102
RTVSPropertyOp2
 70
     1
102
RTVSPropertyOp3
 70
     1
102
RTVSPropertyOp4
 70
     1
102
RTVSPropertyOp5
 70
     1
102
RTVSPropertyOp6
 70
     1
102
RTVSPropertyOp7
 70
     1
102
RTVSPropertyOp8
 70
     1
102
RTVSPropertyOp9
 70
     1
102
RTVSPropertyOp10
 70
     1
102
RTVSPropertyOp11
 70
     1
102
RTVSPropertyOp12
 70
     1
102
RTVSPropertyOp13
 70
     1
102
RTVSPropertyOp14
 70
     1
102
RTVSPropertyOp15
 70
     1
102
RTVSPropertyOp16
 70
     1
102
RTVSPropertyOp17
 70
     1
102
RTVSPropertyOp18
 70
     1
102
RTVSPropertyOp19
 70
     1
102
RTVSPropertyOp20
 70
     1
102
RTVSPropertyOp21
 70
     1
102
RTVSPropertyOp22
 70
     1
102
RTVSPropertyOp23
 70
     1
102
RTVSPropertyOp24
 70
     1
102
RTVSPropertyOp25
 70
     1
102
RTVSPropertyOp26
 70
     1
102
RTVSPropertyOp27
 70
     1
102
RTVSPropertyOp28
 70
     1
102
RTVSPropertyOp29
 70
     1
102
RTVSPropertyOp30
 70
     1
102
RTVSPropertyOp31
 70
     1
102
RTVSPropertyOp32
 70
     1
  0
XRECORD
  5
25F
102
{ACAD_REACTORS
330
25E
102
}
330
25E
100
AcDbXrecord
280
     1
102
RTVSPropertyOp0
 70
     1
102
RTVSPropertyOp1
 70
     1
102
RTVSPropertyOp2
 70
     1
102
RTVSPropertyOp3
 70
     1
102
RTVSPropertyOp4
 70
     1
102
RTVSPropertyOp5
 70
     1
102
RTVSPropertyOp6
 70
     1
102
RTVSPropertyOp7
 70
     1
102
RTVSPropertyOp8
 70
     1
102
RTVSPropertyOp9
 70
     1
102
RTVSPropertyOp10
 70
     1
102
RTVSPropertyOp11
 70
     1
102
RTVSPropertyOp12
 70
     1
102
RTVSPropertyOp13
 70
     1
102
RTVSPropertyOp14
 70
     1
102
RTVSPropertyOp15
 70
     1
102
RTVSPropertyOp16
 70
     1
102
RTVSPropertyOp17
 70
     1
102
RTVSPropertyOp18
 70
     1
102
RTVSPropertyOp19
 70
     1
102
RTVSPropertyOp20
 70
     1
102
RTVSPropertyOp21
 70
     1
102
RTVSPropertyOp22
 70
     1
102
RTVSPropertyOp23
 70
     1
102
RTVSPropertyOp24
 70
     1
102
RTVSPropertyOp25
 70
     1
102
RTVSPropertyOp26
 70
     1
102
RTVSPropertyOp27
 70
     1
102
RTVSPropertyOp28
 70
     1
102
RTVSPropertyOp29
 70
     1
102
RTVSPropertyOp30
 70
     1
102
RTVSPropertyOp31
 70
     1
102
RTVSPropertyOp32
 70
     1
  0
XRECORD
  5
267
102
{ACAD_REACTORS
330
266
102
}
330
266
100
AcDbXrecord
280
     1
102
RTVSPropertyOp0
 70
     1
102
RTVSPropertyOp1
 70
     1
102
RTVSPropertyOp2
 70
     1
102
RTVSPropertyOp3
 70
     1
102
RTVSPropertyOp4
 70
     1
102
RTVSPropertyOp5
 70
     1
102
RTVSPropertyOp6
 70
     1
102
RTVSPropertyOp7
 70
     1
102
RTVSPropertyOp8
 70
     1
102
RTVSPropertyOp9
 70
     1
102
RTVSPropertyOp10
 70
     1
102
RTVSPropertyOp11
 70
     1
102
RTVSPropertyOp12
 70
     1
102
RTVSPropertyOp13
 70
     1
102
RTVSPropertyOp14
 70
     1
102
RTVSPropertyOp15
 70
     1
102
RTVSPropertyOp16
 70
     1
102
RTVSPropertyOp17
 70
     1
102
RTVSPropertyOp18
 70
     1
102
RTVSPropertyOp19
 70
     1
102
RTVSPropertyOp20
 70
     1
102
RTVSPropertyOp21
 70
     1
102
RTVSPropertyOp22
 70
     1
102
RTVSPropertyOp23
 70
     1
102
RTVSPropertyOp24
 70
     1
102
RTVSPropertyOp25
 70
     1
102
RTVSPropertyOp26
 70
     1
102
RTVSPropertyOp27
 70
     1
102
RTVSPropertyOp28
 70
     1
102
RTVSPropertyOp29
 70
     1
102
RTVSPropertyOp30
 70
     1
102
RTVSPropertyOp31
 70
     1
102
RTVSPropertyOp32
 70
     1
  0
XRECORD
  5
25B
102
{ACAD_REACTORS
330
25A
102
}
330
25A
100
AcDbXrecord
280
     1
102
RTVSPropertyOp0
 70
     1
102
RTVSPropertyOp1
 70
     1
102
RTVSPropertyOp2
 70
     1
102
RTVSPropertyOp3
 70
     1
102
RTVSPropertyOp4
 70
     1
102
RTVSPropertyOp5
 70
     1
102
RTVSPropertyOp6
 70
     1
102
RTVSPropertyOp7
 70
     1
102
RTVSPropertyOp8
 70
     1
102
RTVSPropertyOp9
 70
     1
102
RTVSPropertyOp10
 70
     1
102
RTVSPropertyOp11
 70
     1
102
RTVSPropertyOp12
 70
     1
102
RTVSPropertyOp13
 70
     1
102
RTVSPropertyOp14
 70
     1
102
RTVSPropertyOp15
 70
     1
102
RTVSPropertyOp16
 70
     1
102
RTVSPropertyOp17
 70
     1
102
RTVSPropertyOp18
 70
     1
102
RTVSPropertyOp19
 70
     1
102
RTVSPropertyOp20
 70
     1
102
RTVSPropertyOp21
 70
     1
102
RTVSPropertyOp22
 70
     1
102
RTVSPropertyOp23
 70
     1
102
RTVSPropertyOp24
 70
     1
102
RTVSPropertyOp25
 70
     1
102
RTVSPropertyOp26
 70
     1
102
RTVSPropertyOp27
 70
     1
102
RTVSPropertyOp28
 70
     1
102
RTVSPropertyOp29
 70
     1
102
RTVSPropertyOp30
 70
     1
102
RTVSPropertyOp31
 70
     1
102
RTVSPropertyOp32
 70
     1
  0
XRECORD
  5
25D
102
{ACAD_REACTORS
330
25C
102
}
330
25C
100
AcDbXrecord
280
     1
102
RTVSPropertyOp0
 70
     1
102
RTVSPropertyOp1
 70
     1
102
RTVSPropertyOp2
 70
     1
102
RTVSPropertyOp3
 70
     1
102
RTVSPropertyOp4
 70
     1
102
RTVSPropertyOp5
 70
     1
102
RTVSPropertyOp6
 70
     1
102
RTVSPropertyOp7
 70
     1
102
RTVSPropertyOp8
 70
     1
102
RTVSPropertyOp9
 70
     1
102
RTVSPropertyOp10
 70
     1
102
RTVSPropertyOp11
 70
     1
102
RTVSPropertyOp12
 70
     1
102
RTVSPropertyOp13
 70
     1
102
RTVSPropertyOp14
 70
     1
102
RTVSPropertyOp15
 70
     1
102
RTVSPropertyOp16
 70
     1
102
RTVSPropertyOp17
 70
     1
102
RTVSPropertyOp18
 70
     1
102
RTVSPropertyOp19
 70
     1
102
RTVSPropertyOp20
 70
     1
102
RTVSPropertyOp21
 70
     1
102
RTVSPropertyOp22
 70
     1
102
RTVSPropertyOp23
 70
     1
102
RTVSPropertyOp24
 70
     1
102
RTVSPropertyOp25
 70
     1
102
RTVSPropertyOp26
 70
     1
102
RTVSPropertyOp27
 70
     1
102
RTVSPropertyOp28
 70
     1
102
RTVSPropertyOp29
 70
     1
102
RTVSPropertyOp30
 70
     1
102
RTVSPropertyOp31
 70
     1
102
RTVSPropertyOp32
 70
     1
  0
XRECORD
  5
265
102
{ACAD_REACTORS
330
264
102
}
330
264
100
AcDbXrecord
280
     1
102
RTVSPropertyOp0
 70
     1
102
RTVSPropertyOp1
 70
     1
102
RTVSPropertyOp2
 70
     1
102
RTVSPropertyOp3
 70
     1
102
RTVSPropertyOp4
 70
     1
102
RTVSPropertyOp5
 70
     1
102
RTVSPropertyOp6
 70
     1
102
RTVSPropertyOp7
 70
     1
102
RTVSPropertyOp8
 70
     1
102
RTVSPropertyOp9
 70
     1
102
RTVSPropertyOp10
 70
     1
102
RTVSPropertyOp11
 70
     1
102
RTVSPropertyOp12
 70
     1
102
RTVSPropertyOp13
 70
     1
102
RTVSPropertyOp14
 70
     1
102
RTVSPropertyOp15
 70
     1
102
RTVSPropertyOp16
 70
     1
102
RTVSPropertyOp17
 70
     1
102
RTVSPropertyOp18
 70
     1
102
RTVSPropertyOp19
 70
     1
102
RTVSPropertyOp20
 70
     1
102
RTVSPropertyOp21
 70
     1
102
RTVSPropertyOp22
 70
     1
102
RTVSPropertyOp23
 70
     1
102
RTVSPropertyOp24
 70
     1
102
RTVSPropertyOp25
 70
     1
102
RTVSPropertyOp26
 70
     1
102
RTVSPropertyOp27
 70
     1
102
RTVSPropertyOp28
 70
     1
102
RTVSPropertyOp29
 70
     1
102
RTVSPropertyOp30
 70
     1
102
RTVSPropertyOp31
 70
     1
102
RTVSPropertyOp32
 70
     1
  0
XRECORD
  5
249
102
{ACAD_REACTORS
330
248
102
}
330
248
100
AcDbXrecord
280
     1
102
RTVSPropertyOp0
 70
     1
102
RTVSPropertyOp1
 70
     1
102
RTVSPropertyOp2
 70
     1
102
RTVSPropertyOp3
 70
     1
102
RTVSPropertyOp4
 70
     1
102
RTVSPropertyOp5
 70
     1
102
RTVSPropertyOp6
 70
     1
102
RTVSPropertyOp7
 70
     1
102
RTVSPropertyOp8
 70
     1
102
RTVSPropertyOp9
 70
     1
102
RTVSPropertyOp10
 70
     1
102
RTVSPropertyOp11
 70
     1
102
RTVSPropertyOp12
 70
     1
102
RTVSPropertyOp13
 70
     1
102
RTVSPropertyOp14
 70
     1
102
RTVSPropertyOp15
 70
     1
102
RTVSPropertyOp16
 70
     1
102
RTVSPropertyOp17
 70
     1
102
RTVSPropertyOp18
 70
     1
102
RTVSPropertyOp19
 70
     1
102
RTVSPropertyOp20
 70
     1
102
RTVSPropertyOp21
 70
     1
102
RTVSPropertyOp22
 70
     1
102
RTVSPropertyOp23
 70
     1
102
RTVSPropertyOp24
 70
     1
102
RTVSPropertyOp25
 70
     1
102
RTVSPropertyOp26
 70
     1
102
RTVSPropertyOp27
 70
     1
102
RTVSPropertyOp28
 70
     1
102
RTVSPropertyOp29
 70
     1
102
RTVSPropertyOp30
 70
     1
102
RTVSPropertyOp31
 70
     1
102
RTVSPropertyOp32
 70
     1
  0
XRECORD
  5
24B
102
{ACAD_REACTORS
330
24A
102
}
330
24A
100
AcDbXrecord
280
     1
102
RTVSPropertyOp0
 70
     1
102
RTVSPropertyOp1
 70
     1
102
RTVSPropertyOp2
 70
     1
102
RTVSPropertyOp3
 70
     1
102
RTVSPropertyOp4
 70
     1
102
RTVSPropertyOp5
 70
     1
102
RTVSPropertyOp6
 70
     1
102
RTVSPropertyOp7
 70
     1
102
RTVSPropertyOp8
 70
     1
102
RTVSPropertyOp9
 70
     1
102
RTVSPropertyOp10
 70
     1
102
RTVSPropertyOp11
 70
     1
102
RTVSPropertyOp12
 70
     1
102
RTVSPropertyOp13
 70
     1
102
RTVSPropertyOp14
 70
     1
102
RTVSPropertyOp15
 70
     1
102
RTVSPropertyOp16
 70
     1
102
RTVSPropertyOp17
 70
     1
102
RTVSPropertyOp18
 70
     1
102
RTVSPropertyOp19
 70
     1
102
RTVSPropertyOp20
 70
     1
102
RTVSPropertyOp21
 70
     1
102
RTVSPropertyOp22
 70
     1
102
RTVSPropertyOp23
 70
     1
102
RTVSPropertyOp24
 70
     1
102
RTVSPropertyOp25
 70
     1
102
RTVSPropertyOp26
 70
     1
102
RTVSPropertyOp27
 70
     1
102
RTVSPropertyOp28
 70
     1
102
RTVSPropertyOp29
 70
     1
102
RTVSPropertyOp30
 70
     1
102
RTVSPropertyOp31
 70
     1
102
RTVSPropertyOp32
 70
     1
  0
XRECORD
  5
24D
102
{ACAD_REACTORS
330
24C
102
}
330
24C
100
AcDbXrecord
280
     1
102
RTVSPropertyOp0
 70
     1
102
RTVSPropertyOp1
 70
     1
102
RTVSPropertyOp2
 70
     1
102
RTVSPropertyOp3
 70
     1
102
RTVSPropertyOp4
 70
     1
102
RTVSPropertyOp5
 70
     1
102
RTVSPropertyOp6
 70
     1
102
RTVSPropertyOp7
 70
     1
102
RTVSPropertyOp8
 70
     1
102
RTVSPropertyOp9
 70
     1
102
RTVSPropertyOp10
 70
     1
102
RTVSPropertyOp11
 70
     1
102
RTVSPropertyOp12
 70
     1
102
RTVSPropertyOp13
 70
     1
102
RTVSPropertyOp14
 70
     1
102
RTVSPropertyOp15
 70
     1
102
RTVSPropertyOp16
 70
     1
102
RTVSPropertyOp17
 70
     1
102
RTVSPropertyOp18
 70
     1
102
RTVSPropertyOp19
 70
     1
102
RTVSPropertyOp20
 70
     1
102
RTVSPropertyOp21
 70
     1
102
RTVSPropertyOp22
 70
     1
102
RTVSPropertyOp23
 70
     1
102
RTVSPropertyOp24
 70
     1
102
RTVSPropertyOp25
 70
     1
102
RTVSPropertyOp26
 70
     1
102
RTVSPropertyOp27
 70
     1
102
RTVSPropertyOp28
 70
     1
102
RTVSPropertyOp29
 70
     1
102
RTVSPropertyOp30
 70
     1
102
RTVSPropertyOp31
 70
     1
102
RTVSPropertyOp32
 70
     1
  0
XRECORD
  5
24F
102
{ACAD_REACTORS
330
24E
102
}
330
24E
100
AcDbXrecord
280
     1
102
RTVSPropertyOp0
 70
     1
102
RTVSPropertyOp1
 70
     1
102
RTVSPropertyOp2
 70
     1
102
RTVSPropertyOp3
 70
     1
102
RTVSPropertyOp4
 70
     1
102
RTVSPropertyOp5
 70
     1
102
RTVSPropertyOp6
 70
     1
102
RTVSPropertyOp7
 70
     1
102
RTVSPropertyOp8
 70
     1
102
RTVSPropertyOp9
 70
     1
102
RTVSPropertyOp10
 70
     1
102
RTVSPropertyOp11
 70
     1
102
RTVSPropertyOp12
 70
     1
102
RTVSPropertyOp13
 70
     1
102
RTVSPropertyOp14
 70
     1
102
RTVSPropertyOp15
 70
     1
102
RTVSPropertyOp16
 70
     1
102
RTVSPropertyOp17
 70
     1
102
RTVSPropertyOp18
 70
     1
102
RTVSPropertyOp19
 70
     1
102
RTVSPropertyOp20
 70
     1
102
RTVSPropertyOp21
 70
     1
102
RTVSPropertyOp22
 70
     1
102
RTVSPropertyOp23
 70
     1
102
RTVSPropertyOp24
 70
     1
102
RTVSPropertyOp25
 70
     1
102
RTVSPropertyOp26
 70
     1
102
RTVSPropertyOp27
 70
     1
102
RTVSPropertyOp28
 70
     1
102
RTVSPropertyOp29
 70
     1
102
RTVSPropertyOp30
 70
     1
102
RTVSPropertyOp31
 70
     1
102
RTVSPropertyOp32
 70
     1
  0
XRECORD
  5
263
102
{ACAD_REACTORS
330
262
102
}
330
262
100
AcDbXrecord
280
     1
102
RTVSPropertyOp0
 70
     1
102
RTVSPropertyOp1
 70
     1
102
RTVSPropertyOp2
 70
     1
102
RTVSPropertyOp3
 70
     1
102
RTVSPropertyOp4
 70
     1
102
RTVSPropertyOp5
 70
     1
102
RTVSPropertyOp6
 70
     1
102
RTVSPropertyOp7
 70
     1
102
RTVSPropertyOp8
 70
     1
102
RTVSPropertyOp9
 70
     1
102
RTVSPropertyOp10
 70
     1
102
RTVSPropertyOp11
 70
     1
102
RTVSPropertyOp12
 70
     1
102
RTVSPropertyOp13
 70
     1
102
RTVSPropertyOp14
 70
     1
102
RTVSPropertyOp15
 70
     1
102
RTVSPropertyOp16
 70
     1
102
RTVSPropertyOp17
 70
     1
102
RTVSPropertyOp18
 70
     1
102
RTVSPropertyOp19
 70
     1
102
RTVSPropertyOp20
 70
     1
102
RTVSPropertyOp21
 70
     1
102
RTVSPropertyOp22
 70
     1
102
RTVSPropertyOp23
 70
     1
102
RTVSPropertyOp24
 70
     1
102
RTVSPropertyOp25
 70
     1
102
RTVSPropertyOp26
 70
     1
102
RTVSPropertyOp27
 70
     1
102
RTVSPropertyOp28
 70
     1
102
RTVSPropertyOp29
 70
     1
102
RTVSPropertyOp30
 70
     1
102
RTVSPropertyOp31
 70
     1
102
RTVSPropertyOp32
 70
     1
  0
XRECORD
  5
259
102
{ACAD_REACTORS
330
258
102
}
330
258
100
AcDbXrecord
280
     1
102
RTVSPropertyOp0
 70
     1
102
RTVSPropertyOp1
 70
     1
102
RTVSPropertyOp2
 70
     1
102
RTVSPropertyOp3
 70
     1
102
RTVSPropertyOp4
 70
     1
102
RTVSPropertyOp5
 70
     1
102
RTVSPropertyOp6
 70
     1
102
RTVSPropertyOp7
 70
     1
102
RTVSPropertyOp8
 70
     1
102
RTVSPropertyOp9
 70
     1
102
RTVSPropertyOp10
 70
     1
102
RTVSPropertyOp11
 70
     1
102
RTVSPropertyOp12
 70
     1
102
RTVSPropertyOp13
 70
     1
102
RTVSPropertyOp14
 70
     1
102
RTVSPropertyOp15
 70
     1
102
RTVSPropertyOp16
 70
     1
102
RTVSPropertyOp17
 70
     1
102
RTVSPropertyOp18
 70
     1
102
RTVSPropertyOp19
 70
     1
102
RTVSPropertyOp20
 70
     1
102
RTVSPropertyOp21
 70
     1
102
RTVSPropertyOp22
 70
     1
102
RTVSPropertyOp23
 70
     1
102
RTVSPropertyOp24
 70
     1
102
RTVSPropertyOp25
 70
     1
102
RTVSPropertyOp26
 70
     1
102
RTVSPropertyOp27
 70
     1
102
RTVSPropertyOp28
 70
     1
102
RTVSPropertyOp29
 70
     1
102
RTVSPropertyOp30
 70
     1
102
RTVSPropertyOp31
 70
     1
102
RTVSPropertyOp32
 70
     1
  0
XRECORD
  5
261
102
{ACAD_REACTORS
330
260
102
}
330
260
100
AcDbXrecord
280
     1
102
RTVSPropertyOp0
 70
     1
102
RTVSPropertyOp1
 70
     1
102
RTVSPropertyOp2
 70
     1
102
RTVSPropertyOp3
 70
     1
102
RTVSPropertyOp4
 70
     1
102
RTVSPropertyOp5
 70
     1
102
RTVSPropertyOp6
 70
     1
102
RTVSPropertyOp7
 70
     1
102
RTVSPropertyOp8
 70
     1
102
RTVSPropertyOp9
 70
     1
102
RTVSPropertyOp10
 70
     1
102
RTVSPropertyOp11
 70
     1
102
RTVSPropertyOp12
 70
     1
102
RTVSPropertyOp13
 70
     1
102
RTVSPropertyOp14
 70
     1
102
RTVSPropertyOp15
 70
     1
102
RTVSPropertyOp16
 70
     1
102
RTVSPropertyOp17
 70
     1
102
RTVSPropertyOp18
 70
     1
102
RTVSPropertyOp19
 70
     1
102
RTVSPropertyOp20
 70
     1
102
RTVSPropertyOp21
 70
     1
102
RTVSPropertyOp22
 70
     1
102
RTVSPropertyOp23
 70
     1
102
RTVSPropertyOp24
 70
     1
102
RTVSPropertyOp25
 70
     1
102
RTVSPropertyOp26
 70
     1
102
RTVSPropertyOp27
 70
     1
102
RTVSPropertyOp28
 70
     1
102
RTVSPropertyOp29
 70
     1
102
RTVSPropertyOp30
 70
     1
102
RTVSPropertyOp31
 70
     1
102
RTVSPropertyOp32
 70
     1
  0
ENDSEC
  0
EOF
